Lean on Pete 2017 1080p AMZN WEBRip DDP5.1 x264-NTG

Title: Lean on Pete
Year: 2017
Time: 121 min
Genre: Adventure / Drama
Directed by: Andrew Haigh
Starring: Charlie Plummer / Amy Seimetz / Travis Fimmel / Steve Buscemi / Jason Beem
IMDB Rating: 7.4
IMDB URL: http://www.imdb.com/title/tt5340300/
Plot:
The film follows fifteen-year-old Charley Thompson. He wants a home, food on the table and a high school he can attend for more than part of the year. As the son of a single father working in warehouses across the Pacific Northwest, stability is hard to find. Hoping for a new start they move to Portland, Oregon where Charley takes a summer job, with a washed-up horse trainer, and befriends a failing racehorse named Lean on Pete.

Video
ID                                       : 1
Format                                   : AVC
Format/Info                              : Advanced Video Codec
Format profile                           : [email protected]
Format settings                          : CABAC / 4 Ref Frames
Format settings, CABAC                   : Yes
Format settings, ReFrames                : 4 frames
Codec ID                                 : V_MPEG4/ISO/AVC
Duration                                 : 2 h 1 min
Bit rate mode                            : Variable
Bit rate                                 : 11.4 Mb/s
Maximum bit rate                         : 15.0 Mb/s
Width                                    : 1 920 pixels
Height                                   : 1 040 pixels
Display aspect ratio                     : 1.85:1
Frame rate mode                          : Constant
Frame rate                               : 24.000 FPS
Color space                              : YUV
Chroma subsampling                       : 4:2:0
Bit depth                                : 8 bits
Scan type                                : Progressive
Bits/(Pixel*Frame)                       : 0.237
Stream size                              : 9.68 GiB (95%)
Default                                  : Yes
Forced                                   : No
Color range                              : Limited
Color primaries                          : BT.709
Transfer characteristics                 : BT.709
Matrix coefficients                      : BT.709

Audio
ID                                       : 2
Format                                   : E-AC-3
Format/Info                              : Enhanced Audio Coding 3
Codec ID                                 : A_EAC3
Duration                                 : 2 h 1 min
Bit rate mode                            : Constant
Bit rate                                 : 640 kb/s
Channel(s)                               : 6 channels
Channel positions                        : Front: L C R, Side: L R, LFE
Sampling rate                            : 48.0 kHz
Frame rate                               : 187.500 FPS (256 SPF)
Compression mode                         : Lossy
Stream size                              : 558 MiB (5%)
Language                                 : English
Service kind                             : Complete Main
Default                                  : Yes
Forced                                   : No

 

Screenshots



Download

https://subyshare.com/c49kdjcwy3ed/Lean.on.Pete.2017.1080p.AMZN.WEBRip.DDP5.1.part1.rar.html
https://subyshare.com/2shbd3xoyh0m/Lean.on.Pete.2017.1080p.AMZN.WEBRip.DDP5.1.part2.rar.html
https://subyshare.com/q1ib1jqo9kzu/Lean.on.Pete.2017.1080p.AMZN.WEBRip.DDP5.1.part3.rar.html
https://subyshare.com/630gvujrbr4j/Lean.on.Pete.2017.1080p.AMZN.WEBRip.DDP5.1.part4.rar.html
https://subyshare.com/3rtfubfyqppk/Lean.on.Pete.2017.1080p.AMZN.WEBRip.DDP5.1.part5.rar.html
https://subyshare.com/6ix9yloc6u9o/Lean.on.Pete.2017.1080p.AMZN.WEBRip.DDP5.1.part6.rar.html
https://subyshare.com/nb6i3qylb0pq/Lean.on.Pete.2017.1080p.AMZN.WEBRip.DDP5.1.part7.rar.html
https://subyshare.com/fffbxg4as9bu/Lean.on.Pete.2017.1080p.AMZN.WEBRip.DDP5.1.part8.rar.html