Landing Up 2018 1080p WEB-DL AAC2.0 H264-FGT

Title: Landing Up
Year: 2018
Time: 96 min
Genre: Drama
Directed by: Daniel Tenenbaum
Starring: Ben Rappaport / Stacey Maltin / Dov Tiefenbach / E’dena Hines / Jay DeYonker
IMDB Rating: 6.7
IMDB URL: http://www.imdb.com/title/tt4764490/
Plot:
CHRISSIE and CECE play a con game with strangers to put a roof over their heads while fantasizing about their dream apartment. When Chrissie meets DAVID, a funny, genuine guy who works his way into her heart, she falls for him and must decide whether to confess the real circumstances of her life or continue her lie at all costs. Even at the cost of someone’s life.

Video
ID                                       : 1
Format                                   : AVC
Format/Info                              : Advanced Video Codec
Format profile                           : [email protected]
Format settings                          : CABAC / 5 Ref Frames
Format settings, CABAC                   : Yes
Format settings, ReFrames                : 5 frames
Codec ID                                 : V_MPEG4/ISO/AVC
Duration                                 : 1 h 38 min
Bit rate                                 : 4 580 kb/s
Width                                    : 1 920 pixels
Height                                   : 816 pixels
Display aspect ratio                     : 2.35:1
Frame rate mode                          : Constant
Frame rate                               : 23.976 (23976/1000) FPS
Color space                              : YUV
Chroma subsampling                       : 4:2:0
Bit depth                                : 8 bits
Scan type                                : Progressive
Bits/(Pixel*Frame)                       : 0.122
Stream size                              : 3.14 GiB (97%)
Title                                    : Landing.Up.2017.1080p.WEB-DL.AAC2.0.H264-FGT
Language                                 : English
Default                                  : Yes
Forced                                   : No
Color range                              : Limited
Color primaries                          : BT.709
Transfer characteristics                 : BT.709
Matrix coefficients                      : BT.709

Audio
ID                                       : 2
Format                                   : AAC
Format/Info                              : Advanced Audio Codec
Format profile                           : LC
Codec ID                                 : A_AAC-2
Duration                                 : 1 h 38 min
Bit rate                                 : 125 kb/s
Channel(s)                               : 2 channels
Channel positions                        : Front: L R
Sampling rate                            : 48.0 kHz
Frame rate                               : 46.875 FPS (1024 SPF)
Compression mode                         : Lossy
Delay relative to video                  : -42 ms
Stream size                              : 87.5 MiB (3%)
Title                                    : Landing.Up.2017.1080p.WEB-DL.AAC2.0.H264-FGT
Language                                 : English
Default                                  : Yes
Forced                                   : No

Text
ID                                       : 3
Format                                   : UTF-8
Codec ID                                 : S_TEXT/UTF8
Codec ID/Info                            : UTF-8 Plain Text
Duration                                 : 1 h 33 min
Bit rate                                 : 62 b/s
Count of elements                        : 1438
Stream size                              : 42.4 KiB (0%)
Language                                 : English
Default                                  : Yes
Forced                                   : No

Menu
00:00:00.000                             : en:Chapter One
00:15:00.000                             : en:Chapter Two
00:30:00.000                             : en:Chapter Three
00:45:00.000                             : en:Chapter Four
01:00:00.000                             : en:Chapter Five
01:15:00.000                             : en:Chapter Six
01:30:00.000                             : en:Chapter Seven

Screenshots



Download

https://subyshare.com/lazjbzgj9685/Landing.Up.2017.1080p.WEB-DL.AAC2.0.part1.rar.html
https://subyshare.com/gx33bma37qv6/Landing.Up.2017.1080p.WEB-DL.AAC2.0.part2.rar.html
https://subyshare.com/frmpdqkfnzk3/Landing.Up.2017.1080p.WEB-DL.AAC2.0.part3.rar.html