Lake Fear 2 The Swamp 2016 1080p AMZN WEBRip DD2.0 x264-QOQ

Title: The Everglades Killings
Year: 2016
Time: 80 min
Genre: Horror
Directed by: Ben Wilder
Starring: Sydney Ray / Nicholas Kolasinski / Peter Pontone / Robert Futrell / Camisha Luellen
IMDB Rating: 5.9
IMDB URL: http://www.imdb.com/title/tt5515374/
Plot:
It’s March in South Florida. The beach towns are flush with young people looking for action and excitement. For one unlucky group of thrill-seeking spring breakers, their adventure leads to the black waters of the Florida Everglades – a place with mosquitoes the size of birds, snakes as long as school busses and tens of thousands of flesh-ripping alligators. But beyond the scope of the traditional predators famous for keeping the glades wild is another phenomenon – one with two legs and an insatiable thirst for killing.

Video
ID                                       : 1
Format                                   : AVC
Format/Info                              : Advanced Video Codec
Format profile                           : [email protected]
Format settings                          : CABAC / 4 Ref Frames
Format settings, CABAC                   : Yes
Format settings, ReFrames                : 4 frames
Codec ID                                 : V_MPEG4/ISO/AVC
Duration                                 : 1 h 19 min
Bit rate mode                            : Variable
Bit rate                                 : 5 534 kb/s
Maximum bit rate                         : 15.0 Mb/s
Width                                    : 1 920 pixels
Height                                   : 800 pixels
Display aspect ratio                     : 2.40:1
Frame rate mode                          : Constant
Frame rate                               : 29.970 (30000/1001) FPS
Color space                              : YUV
Chroma subsampling                       : 4:2:0
Bit depth                                : 8 bits
Scan type                                : Progressive
Bits/(Pixel*Frame)                       : 0.120
Stream size                              : 3.08 GiB (96%)
Default                                  : Yes
Forced                                   : No
Color range                              : Limited
Color primaries                          : BT.709
Transfer characteristics                 : BT.709
Matrix coefficients                      : BT.709

Audio
ID                                       : 2
Format                                   : E-AC-3
Format/Info                              : Enhanced Audio Coding 3
Codec ID                                 : A_EAC3
Duration                                 : 1 h 19 min
Bit rate mode                            : Constant
Bit rate                                 : 224 kb/s
Channel(s)                               : 2 channels
Channel positions                        : Front: L R
Sampling rate                            : 48.0 kHz
Frame rate                               : 187.500 FPS (256 SPF)
Compression mode                         : Lossy
Stream size                              : 128 MiB (4%)
Language                                 : English
Service kind                             : Complete Main
Default                                  : Yes
Forced                                   : No

Text
ID                                       : 3
Format                                   : UTF-8
Codec ID                                 : S_TEXT/UTF8
Codec ID/Info                            : UTF-8 Plain Text
Duration                                 : 1 h 18 min
Bit rate                                 : 93 b/s
Count of elements                        : 1846
Stream size                              : 54.0 KiB (0%)
Language                                 : English
Default                                  : No
Forced                                   : No

Screenshots



Download

https://subyshare.com/9fsf7vn2v573/Lake.Fear.2.The.Swamp.2016.1080p.AMZN.WEBRip.DD2.0.part1.rar.html
https://subyshare.com/3lw2ahyf25zi/Lake.Fear.2.The.Swamp.2016.1080p.AMZN.WEBRip.DD2.0.part2.rar.html
https://subyshare.com/sca5a7mfbfri/Lake.Fear.2.The.Swamp.2016.1080p.AMZN.WEBRip.DD2.0.part3.rar.html