Lady Bird 2017 1080p AMZN WEBRip DDP5.1 x264-SiGMA

Title: Lady Bird
Year: 2017
Time: 94 min
Genre: Comedy / Drama
Directed by: Greta Gerwig
Starring: Saoirse Ronan / Laurie Metcalf / Tracy Letts / Lucas Hedges / Timoth茅e Chalamet
IMDB Rating: 7.7
IMDB URL: http://www.imdb.com/title/tt4925292/
Plot:
Christine “Lady Bird” MacPherson is a high school senior from the “wrong side of the tracks.” She longs for adventure, sophistication, and opportunity, but finds none of that in her Sacramento Catholic high school. LADY BIRD follows the title character’s senior year in high school, including her first romance, her participation in the school play, and most importantly, her applying for college. Written by Dehlia

Video
ID                                       : 1
Format                                   : AVC
Format/Info                              : Advanced Video Codec
Format profile                           : [email protected]
Format settings                          : CABAC / 4 Ref Frames
Format settings, CABAC                   : Yes
Format settings, ReFrames                : 4 frames
Codec ID                                 : V_MPEG4/ISO/AVC
Duration                                 : 1 h 33 min
Bit rate mode                            : Variable
Bit rate                                 : 8 516 kb/s
Maximum bit rate                         : 15.0 Mb/s
Width                                    : 1 920 pixels
Height                                   : 1 040 pixels
Display aspect ratio                     : 1.85:1
Frame rate mode                          : Constant
Frame rate                               : 23.976 (24000/1001) FPS
Color space                              : YUV
Chroma subsampling                       : 4:2:0
Bit depth                                : 8 bits
Scan type                                : Progressive
Bits/(Pixel*Frame)                       : 0.178
Stream size                              : 5.58 GiB (93%)
Default                                  : Yes
Forced                                   : No
Color range                              : Limited
Color primaries                          : BT.709
Transfer characteristics                 : BT.709
Matrix coefficients                      : BT.709

Audio
ID                                       : 2
Format                                   : E-AC-3
Format/Info                              : Enhanced Audio Coding 3
Codec ID                                 : A_EAC3
Duration                                 : 1 h 33 min
Bit rate mode                            : Constant
Bit rate                                 : 640 kb/s
Channel(s)                               : 6 channels
Channel positions                        : Front: L C R, Side: L R, LFE
Sampling rate                            : 48.0 kHz
Frame rate                               : 187.500 FPS (256 SPF)
Compression mode                         : Lossy
Stream size                              : 429 MiB (7%)
Language                                 : English
Service kind                             : Complete Main
Default                                  : Yes
Forced                                   : No

Text
ID                                       : 3
Format                                   : UTF-8
Codec ID                                 : S_TEXT/UTF8
Codec ID/Info                            : UTF-8 Plain Text
Duration                                 : 1 h 33 min
Bit rate                                 : 78 b/s
Count of elements                        : 1616
Stream size                              : 53.6 KiB (0%)
Title                                    : English
Language                                 : English
Default                                  : No
Forced                                   : No


Screenshots:







Download:

https://subyshare.com/5wboho6lyr62/Lady.Bird.2017.1080p.AMZN.WEBRip.DDP5.1.part1.rar.html
https://subyshare.com/3appr8j6et59/Lady.Bird.2017.1080p.AMZN.WEBRip.DDP5.1.part2.rar.html
https://subyshare.com/zvkny504pacm/Lady.Bird.2017.1080p.AMZN.WEBRip.DDP5.1.part3.rar.html
https://subyshare.com/z758kyjcls4g/Lady.Bird.2017.1080p.AMZN.WEBRip.DDP5.1.part4.rar.html
https://subyshare.com/x42ix02rbjei/Lady.Bird.2017.1080p.AMZN.WEBRip.DDP5.1.part5.rar.html

Leave a Reply

Your email address will not be published. Required fields are marked *