Juggernaut 2017 1080p WEB-DL DD5.1 H264-FGT

Title: Juggernaut
Year: 2017
Time: 105 min
Genre: Crime / Drama / Family
Directed by: Daniel DiMarco
Starring: Amanda Crew / Ty Olsson / Jack Kesy / Stephen McHattie / David Cubitt
IMDB Rating: 5.2
IMDB URL: http://www.imdb.com/title/tt3130594/
Plot:
After a lengthy absence, a small town outlaw returns to his hometown, violently obsessed with the notion that his Mother’s death was not a suicide.

Video
ID                                       : 1
Format                                   : AVC
Format/Info                              : Advanced Video Codec
Format profile                           : [email protected]
Format settings                          : CABAC / 5 Ref Frames
Format settings, CABAC                   : Yes
Format settings, ReFrames                : 5 frames
Codec ID                                 : V_MPEG4/ISO/AVC
Duration                                 : 1 h 54 min
Bit rate                                 : 4 627 kb/s
Width                                    : 1 912 pixels
Height                                   : 792 pixels
Display aspect ratio                     : 2.40:1
Frame rate mode                          : Constant
Frame rate                               : 23.976 (24000/1001) FPS
Color space                              : YUV
Chroma subsampling                       : 4:2:0
Bit depth                                : 8 bits
Scan type                                : Progressive
Bits/(Pixel*Frame)                       : 0.127
Stream size                              : 3.71 GiB (92%)
Title                                    : Juggernaut.2017.1080p.WEB-DL.DD5.1.H264-FGT
Language                                 : English
Default                                  : Yes
Forced                                   : No
Color range                              : Limited
Color primaries                          : BT.709
Transfer characteristics                 : BT.709
Matrix coefficients                      : BT.709

Audio
ID                                       : 2
Format                                   : AC-3
Format/Info                              : Audio Coding 3
Codec ID                                 : A_AC3
Duration                                 : 1 h 54 min
Bit rate mode                            : Constant
Bit rate                                 : 384 kb/s
Channel(s)                               : 6 channels
Channel positions                        : Front: L C R, Side: L R, LFE
Sampling rate                            : 48.0 kHz
Frame rate                               : 31.250 FPS (1536 SPF)
Bit depth                                : 16 bits
Compression mode                         : Lossy
Delay relative to video                  : -42 ms
Stream size                              : 315 MiB (8%)
Title                                    : Juggernaut.2017.1080p.WEB-DL.DD5.1.H264-FGT
Language                                 : English
Service kind                             : Complete Main
Default                                  : Yes
Forced                                   : No

Text
ID                                       : 3
Format                                   : UTF-8
Codec ID                                 : S_TEXT/UTF8
Codec ID/Info                            : UTF-8 Plain Text
Duration                                 : 1 h 43 min
Bit rate                                 : 39 b/s
Count of elements                        : 1154
Stream size                              : 30.3 KiB (0%)
Language                                 : English
Default                                  : Yes
Forced                                   : No

Menu
00:00:00.000                             : en:1
00:09:41.000                             : en:2
00:18:34.000                             : en:3
00:29:00.000                             : en:4
00:37:52.000                             : en:5
00:46:16.000                             : en:6
00:54:51.000                             : en:7
01:04:17.000                             : en:8
01:15:53.000                             : en:9
01:25:03.000                             : en:10
01:38:16.000                             : en:11
01:50:13.000                             : en:12

Screenshots



Download

https://subyshare.com/ej5yj0y6o5h8/Juggernaut.2017.1080p.WEB-DL.DD5.1.part1.rar.html
https://subyshare.com/f495faxtn6wl/Juggernaut.2017.1080p.WEB-DL.DD5.1.part2.rar.html
https://subyshare.com/42zf7kraficn/Juggernaut.2017.1080p.WEB-DL.DD5.1.part3.rar.html