Island Zero 2017 1080p AMZN WEBRip DDP5.1 x264-NTG

Title: Island Zero
Year: 2017
Time: n/A
Genre: Horror
Directed by: Josh Gerritsen
Starring: Laila Robins / Adam Wade McLaughlin / Teri Reeves / Matthew Wilkas / Stephanie Atkinson
IMDB Rating: 4
IMDB URL: http://www.imdb.com/title/tt5566778/
Plot:
Inhabitants of a fishing island off the coast of Maine find themselves mysteriously cut off from the outside world after the ferry suddenly stops coming. All the phones have gone dead and every boat sent to the mainland fails to return. When dead bodies turn up along the water’s edge, the hardy band of survivors must find out who, or what, is killing them. Written by Tess Gerritsen

Video
ID                                       : 1
Format                                   : AVC
Format/Info                              : Advanced Video Codec
Format profile                           : [email protected]
Format settings                          : CABAC / 4 Ref Frames
Format settings, CABAC                   : Yes
Format settings, ReFrames                : 4 frames
Codec ID                                 : V_MPEG4/ISO/AVC
Duration                                 : 1 h 39 min
Bit rate mode                            : Variable
Bit rate                                 : 4 623 kb/s
Maximum bit rate                         : 15.0 Mb/s
Width                                    : 1 920 pixels
Height                                   : 1 080 pixels
Display aspect ratio                     : 16:9
Frame rate mode                          : Constant
Frame rate                               : 23.976 (24000/1001) FPS
Color space                              : YUV
Chroma subsampling                       : 4:2:0
Bit depth                                : 8 bits
Scan type                                : Progressive
Bits/(Pixel*Frame)                       : 0.093
Stream size                              : 3.21 GiB (88%)
Default                                  : Yes
Forced                                   : No
Color range                              : Limited
Color primaries                          : BT.709
Transfer characteristics                 : BT.709
Matrix coefficients                      : BT.709

Audio
ID                                       : 2
Format                                   : E-AC-3
Format/Info                              : Enhanced Audio Coding 3
Codec ID                                 : A_EAC3
Duration                                 : 1 h 39 min
Bit rate mode                            : Constant
Bit rate                                 : 640 kb/s
Channel(s)                               : 6 channels
Channel positions                        : Front: L C R, Side: L R, LFE
Sampling rate                            : 48.0 kHz
Frame rate                               : 187.500 FPS (256 SPF)
Compression mode                         : Lossy
Stream size                              : 455 MiB (12%)
Language                                 : English
Service kind                             : Complete Main
Default                                  : Yes
Forced                                   : No

Text #1
ID                                       : 3
Format                                   : UTF-8
Codec ID                                 : S_TEXT/UTF8
Codec ID/Info                            : UTF-8 Plain Text
Duration                                 : 1 h 35 min
Bit rate                                 : 54 b/s
Count of elements                        : 1137
Stream size                              : 38.4 KiB (0%)
Language                                 : English
Default                                  : No
Forced                                   : No

Text #2
ID                                       : 4
Format                                   : UTF-8
Codec ID                                 : S_TEXT/UTF8
Codec ID/Info                            : UTF-8 Plain Text
Duration                                 : 1 h 36 min
Bit rate                                 : 61 b/s
Count of elements                        : 1417
Stream size                              : 43.6 KiB (0%)
Title                                    : SDH
Language                                 : English
Default                                  : No
Forced                                   : No

Screenshots



Download

https://subyshare.com/23oipebnsvyt/Island.Zero.2018.1080p.AMZN.WEBRip.DDP5.1.part1.rar.html
https://subyshare.com/9ta7gqgi7ymi/Island.Zero.2018.1080p.AMZN.WEBRip.DDP5.1.part2.rar.html
https://subyshare.com/hb3zntdk8k1s/Island.Zero.2018.1080p.AMZN.WEBRip.DDP5.1.part3.rar.html