Inheritance 2017 1080p WEB-DL DD5.1 H264-FGT

Title: Inheritance
Year: 2017
Time: 90 min
Genre: Drama / Horror / Mystery / Thriller
Directed by: Tyler Savage
Starring: Chase Joliet / Sara Montez / Dale Dickey / Drew Powell / Jim Ortlieb
IMDB Rating: 4.8
IMDB URL: http://www.imdb.com/title/tt5580602/
Plot:
When Ryan mysteriously inherits a house from his biological father, a man he thought long dead, he and his pregnant fiancé travel to the property with high hopes for the future. But curiosity about his deceased father leads Ryan to uncover a dark family history…

Video
ID                                       : 1
Format                                   : AVC
Format/Info                              : Advanced Video Codec
Format profile                           : [email protected]
Format settings                          : CABAC / 5 Ref Frames
Format settings, CABAC                   : Yes
Format settings, ReFrames                : 5 frames
Codec ID                                 : V_MPEG4/ISO/AVC
Duration                                 : 1 h 32 min
Bit rate                                 : 4 561 kb/s
Width                                    : 1 920 pixels
Height                                   : 816 pixels
Display aspect ratio                     : 2.35:1
Frame rate mode                          : Constant
Frame rate                               : 23.976 (23976/1000) FPS
Color space                              : YUV
Chroma subsampling                       : 4:2:0
Bit depth                                : 8 bits
Scan type                                : Progressive
Bits/(Pixel*Frame)                       : 0.121
Stream size                              : 2.95 GiB (92%)
Title                                    : Inheritance.2017.1080p.WEB-DL.DD5.1.H264-FGT
Language                                 : English
Default                                  : Yes
Forced                                   : No
Color range                              : Limited
Color primaries                          : BT.709
Transfer characteristics                 : BT.709
Matrix coefficients                      : BT.709

Audio
ID                                       : 2
Format                                   : AC-3
Format/Info                              : Audio Coding 3
Codec ID                                 : A_AC3
Duration                                 : 1 h 32 min
Bit rate mode                            : Constant
Bit rate                                 : 384 kb/s
Channel(s)                               : 6 channels
Channel positions                        : Front: L C R, Side: L R, LFE
Sampling rate                            : 48.0 kHz
Frame rate                               : 31.250 FPS (1536 SPF)
Bit depth                                : 16 bits
Compression mode                         : Lossy
Stream size                              : 254 MiB (8%)
Title                                    : Inheritance.2017.1080p.WEB-DL.DD5.1.H264-FGT
Language                                 : English
Service kind                             : Complete Main
Default                                  : Yes
Forced                                   : No

Menu
00:00:00.000                             : en:1
00:13:33.000                             : en:2
00:19:52.000                             : en:3
00:30:02.000                             : en:4
00:39:10.000                             : en:5
00:49:09.000                             : en:6
01:02:57.000                             : en:7
01:23:59.000                             : en:8
01:30:22.000                             : en:9

Screenshots



Download

https://subyshare.com/gkjjbs31zeqx/Inheritance.2017.1080p.WEB-DL.DD5.1.part1.rar.html
https://subyshare.com/o3xrpjzk1dhf/Inheritance.2017.1080p.WEB-DL.DD5.1.part2.rar.html
https://subyshare.com/jhw67fool4s3/Inheritance.2017.1080p.WEB-DL.DD5.1.part3.rar.html