Incoming 2018 1080p WEB-DL DD5.1 H264-FGT

Title: Incoming
Year: 2018
Time: n/A
Genre: Action / Sci-Fi / Thriller
Directed by: Eric Zaragoza
Starring: Scott Adkins / Dominic Power / Aaron McCusker / Alaa Safi / Arkie Reece
IMDB Rating: 3.7
IMDB URL: http://www.imdb.com/title/tt6678874/
Plot:
The International Space Station is now a prison – the ultimate black site. No one’s getting out. And no one knows it’s there. But when the imprisoned terrorists take over the Station and turn it into a missile aimed at Moscow, only a shuttle pilot and a rookie doctor can stop them. Their task is complicated by a rogue CIA agent (Scott Adkins) who has his own plans for the station and the terrorists within. Written by https://teaser-trailer.com

Video
ID                                       : 1
Format                                   : AVC
Format/Info                              : Advanced Video Codec
Format profile                           : [email protected]
Format settings                          : CABAC / 5 Ref Frames
Format settings, CABAC                   : Yes
Format settings, ReFrames                : 5 frames
Codec ID                                 : V_MPEG4/ISO/AVC
Duration                                 : 1 h 29 min
Bit rate                                 : 4 583 kb/s
Width                                    : 1 920 pixels
Height                                   : 848 pixels
Display aspect ratio                     : 2.25:1
Frame rate mode                          : Constant
Frame rate                               : 23.976 (23976/1000) FPS
Color space                              : YUV
Chroma subsampling                       : 4:2:0
Bit depth                                : 8 bits
Scan type                                : Progressive
Bits/(Pixel*Frame)                       : 0.117
Stream size                              : 2.85 GiB (92%)
Title                                    : Incoming.2018.1080p.WEB-DL.DD5.1.H264-FGT
Language                                 : English
Default                                  : Yes
Forced                                   : No
Color range                              : Limited
Color primaries                          : BT.709
Transfer characteristics                 : BT.709
Matrix coefficients                      : BT.709

Audio
ID                                       : 2
Format                                   : AC-3
Format/Info                              : Audio Coding 3
Codec ID                                 : A_AC3
Duration                                 : 1 h 29 min
Bit rate mode                            : Constant
Bit rate                                 : 384 kb/s
Channel(s)                               : 6 channels
Channel positions                        : Front: L C R, Side: L R, LFE
Sampling rate                            : 48.0 kHz
Frame rate                               : 31.250 FPS (1536 SPF)
Bit depth                                : 16 bits
Compression mode                         : Lossy
Delay relative to video                  : -42 ms
Stream size                              : 245 MiB (8%)
Title                                    : Incoming.2018.1080p.WEB-DL.DD5.1.H264-FGT
Language                                 : English
Service kind                             : Complete Main
Default                                  : Yes
Forced                                   : No

Menu
00:00:00.000                             : en:1
00:11:16.134                             : en:2
00:21:51.185                             : en:3
00:32:06.884                             : en:4
00:45:02.951                             : en:5
00:56:29.262                             : en:6
01:06:51.217                             : en:7
01:18:24.910                             : en:8
01:25:51.147                             : en:9

Screenshots



Download

https://subyshare.com/066b07oo7qg9/Incoming.2018.1080p.WEB-DL.DD5.1.part1.rar.html
https://subyshare.com/rqxm6yj15y3f/Incoming.2018.1080p.WEB-DL.DD5.1.part2.rar.html
https://subyshare.com/qtu21jioh687/Incoming.2018.1080p.WEB-DL.DD5.1.part3.rar.html