In Search of Fellini 2017 1080p WEB-DL DD5.1 H264-FGT

Title: In Search of Fellini
Year: 2017
Time: 93 min
Genre: Adventure / Drama
Directed by: Taron Lexton
Starring: Maria Bello / Ksenia Solo / Mary Lynn Rajskub / Beth Riesgraf / Barbara Bouchet
IMDB Rating: 6.3
IMDB URL: http://www.imdb.com/title/tt4801232/
Plot:
A shy small-town Ohio girl who loves movies but dislikes reality, discovers the delightfully bizarre films of Federico Fellini, and sets off on a strange, beautiful journey across Italy to find him.

Video
ID                                       : 1
Format                                   : AVC
Format/Info                              : Advanced Video Codec
Format profile                           : [email protected]
Format settings                          : CABAC / 5 Ref Frames
Format settings, CABAC                   : Yes
Format settings, ReFrames                : 5 frames
Codec ID                                 : V_MPEG4/ISO/AVC
Duration                                 : 1 h 43 min
Bit rate                                 : 4 527 kb/s
Width                                    : 1 904 pixels
Height                                   : 796 pixels
Display aspect ratio                     : 2.40:1
Frame rate mode                          : Constant
Frame rate                               : 23.976 (24000/1001) FPS
Color space                              : YUV
Chroma subsampling                       : 4:2:0
Bit depth                                : 8 bits
Scan type                                : Progressive
Bits/(Pixel*Frame)                       : 0.125
Stream size                              : 3.28 GiB (92%)
Title                                    : In.Search.of.Fellini.2017.1080p.WEB-DL.DD5.1.H.264-FGT
Language                                 : English
Default                                  : Yes
Forced                                   : No
Color range                              : Limited
Color primaries                          : BT.709
Transfer characteristics                 : BT.709
Matrix coefficients                      : BT.709

Audio
ID                                       : 2
Format                                   : AC-3
Format/Info                              : Audio Coding 3
Codec ID                                 : A_AC3
Duration                                 : 1 h 43 min
Bit rate mode                            : Constant
Bit rate                                 : 384 kb/s
Channel(s)                               : 6 channels
Channel positions                        : Front: L C R, Side: L R, LFE
Sampling rate                            : 48.0 kHz
Frame rate                               : 31.250 FPS (1536 SPF)
Bit depth                                : 16 bits
Compression mode                         : Lossy
Stream size                              : 285 MiB (8%)
Title                                    : In.Search.of.Fellini.2017.1080p.WEB-DL.DD5.1.H.264-FGT
Language                                 : English
Service kind                             : Complete Main
Default                                  : Yes
Forced                                   : No

Text
ID                                       : 3
Format                                   : UTF-8
Codec ID                                 : S_TEXT/UTF8
Codec ID/Info                            : UTF-8 Plain Text
Duration                                 : 1 h 42 min
Bit rate                                 : 47 b/s
Count of elements                        : 1224
Stream size                              : 35.5 KiB (0%)
Language                                 : English
Default                                  : Yes
Forced                                   : No

Menu
00:00:00.000                             : en:Chapter 1
00:09:12.552                             : en:Chapter 2
00:20:54.253                             : en:Chapter 3
00:32:23.942                             : en:Chapter 4
00:39:44.382                             : en:Chapter 5
00:50:09.006                             : en:Chapter 6
01:00:45.642                             : en:Chapter 7
01:10:18.214                             : en:Chapter 8
01:19:02.738                             : en:Chapter 9
01:29:04.339                             : en:Chapter 10
01:37:37.852                             : en:Chapter 11

Screenshots



Download

https://subyshare.com/rmvvp533l3n1/In.Search.of.Fellini.2017.1080p.WEB-DL.DD5.1.H.part1.rar.html
https://subyshare.com/r2af845s3nkt/In.Search.of.Fellini.2017.1080p.WEB-DL.DD5.1.H.part2.rar.html
https://subyshare.com/u1z4d57vk92m/In.Search.of.Fellini.2017.1080p.WEB-DL.DD5.1.H.part3.rar.html