Ideal Home 2018 1080p WEB-DL DD5.1 H264-FGT

Title: Ideal Home
Year: 2018
Time: 91 min
Genre: Comedy / Drama
Directed by: Andrew Fleming
Starring: Paul Rudd / Kate Walsh / Alison Pill / Jake McDorman / Steve Coogan
IMDB Rating: 5.5
IMDB URL: http://www.imdb.com/title/tt5460880/
Plot:
Steve Coogan and Paul Rudd star as Erasmus and Paul, a bickering gay couple whose life is turned inside out when a ten-year old boy shows up at their door claiming to be Erasmus’ grandson. Neither Paul, nor Erasmus, are ready to give up their extravagant lifestyles to be parents, but maybe this little kid has a thing or two to teach them about the value of family.

Video
ID : 1
Format : AVC
Format/Info : Advanced Video Codec
Format profile : [email protected]
Format settings : CABAC / 5 Ref Frames
Format settings, CABAC : Yes
Format settings, ReFrames : 5 frames
Codec ID : V_MPEG4/ISO/AVC
Duration : 1 h 31 min
Bit rate : 4 560 kb/s
Width : 1 916 pixels
Height : 796 pixels
Display aspect ratio : 2.40:1
Frame rate mode : Constant
Frame rate : 23.976 (23976/1000) FPS
Color space : YUV
Chroma subsampling : 4:2:0
Bit depth : 8 bits
Scan type : Progressive
Bits/(Pixel*Frame) : 0.125
Stream size : 2.91 GiB (92%)
Title : Ideal.Home.2018.1080p.WEB-DL.DD5.1.H264-FGT
Language : English
Default : Yes
Forced : No
Color range : Limited
Color primaries : BT.709
Transfer characteristics : BT.709
Matrix coefficients : BT.709

Audio
ID : 2
Format : AC-3
Format/Info : Audio Coding 3
Codec ID : A_AC3
Duration : 1 h 31 min
Bit rate mode : Constant
Bit rate : 384 kb/s
Channel(s) : 6 channels
Channel positions : Front: L C R, Side: L R, LFE
Sampling rate : 48.0 kHz
Frame rate : 31.250 FPS (1536 SPF)
Bit depth : 16 bits
Compression mode : Lossy
Stream size : 251 MiB (8%)
Title : Ideal.Home.2018.1080p.WEB-DL.DD5.1.H264-FGT
Language : English
Service kind : Complete Main
Default : Yes
Forced : No

Text
ID : 3
Format : UTF-8
Codec ID : S_TEXT/UTF8
Codec ID/Info : UTF-8 Plain Text
Duration : 1 h 23 min
Bit rate : 69 b/s
Count of elements : 1378
Stream size : 42.3 KiB (0%)
Language : English
Default : Yes
Forced : No

Menu
00:00:00.000 : en:1
00:13:24.000 : en:2
00:23:11.000 : en:3
00:37:57.000 : en:4
00:54:14.000 : en:5
01:09:07.000 : en:6
01:20:51.000 : en:7
01:24:12.000 : en:8

Screenshots



Download

https://subyshare.com/nlb26qe92epv/Ideal.Home.2018.1080p.WEB-DL.DD5.1.part1.rar.html
https://subyshare.com/nyex5tcwrubu/Ideal.Home.2018.1080p.WEB-DL.DD5.1.part2.rar.html
https://subyshare.com/ggz6rdc2zt1a/Ideal.Home.2018.1080p.WEB-DL.DD5.1.part3.rar.html