Hurricane Bianca 2 From Russia With Hate 2017 1080p WEB-DL DD5.1 H264-FGT

Title: Hurricane Bianca: From Russia with Hate
Year: 2018
Time: 85 min
Genre: Comedy
Directed by: Matt Kugelman
Starring: Alicia Goranson / Kristen Johnston / Rachel Dratch / Dot-Marie Jones / Cheyenne Jackson
IMDB Rating: 4.8
IMDB URL: http://www.imdb.com/title/tt6113122/
Plot:
Sequel to the 2016 comedy ‘Hurricane Bianca’.

Video
ID                                       : 1
Format                                   : AVC
Format/Info                              : Advanced Video Codec
Format profile                           : [email protected]
Format settings                          : CABAC / 4 Ref Frames
Format settings, CABAC                   : Yes
Format settings, ReFrames                : 4 frames
Codec ID                                 : V_MPEG4/ISO/AVC
Duration                                 : 1 h 25 min
Bit rate                                 : 5 176 kb/s
Width                                    : 1 912 pixels
Height                                   : 1 032 pixels
Display aspect ratio                     : 1.85:1
Frame rate mode                          : Constant
Frame rate                               : 23.976 (24000/1001) FPS
Color space                              : YUV
Chroma subsampling                       : 4:2:0
Bit depth                                : 8 bits
Scan type                                : Progressive
Bits/(Pixel*Frame)                       : 0.109
Stream size                              : 3.09 GiB (93%)
Title                                    : Hurricane.Bianca.2.From.Russia.With.Hate.2017.1080p.WEB-DL.DD5.1.H264-FGT
Language                                 : English
Default                                  : Yes
Forced                                   : No
Color range                              : Limited
Color primaries                          : BT.709
Transfer characteristics                 : BT.709
Matrix coefficients                      : BT.709

Audio
ID                                       : 2
Format                                   : AC-3
Format/Info                              : Audio Coding 3
Codec ID                                 : A_AC3
Duration                                 : 1 h 25 min
Bit rate mode                            : Constant
Bit rate                                 : 384 kb/s
Channel(s)                               : 6 channels
Channel positions                        : Front: L C R, Side: L R, LFE
Sampling rate                            : 48.0 kHz
Frame rate                               : 31.250 FPS (1536 SPF)
Bit depth                                : 16 bits
Compression mode                         : Lossy
Delay relative to video                  : -42 ms
Stream size                              : 235 MiB (7%)
Title                                    : Hurricane.Bianca.2.From.Russia.With.Hate.2017.1080p.WEB-DL.DD5.1.H264-FGT
Language                                 : English
Service kind                             : Complete Main
Default                                  : Yes
Forced                                   : No

Text
ID                                       : 3
Format                                   : UTF-8
Codec ID                                 : S_TEXT/UTF8
Codec ID/Info                            : UTF-8 Plain Text
Duration                                 : 1 h 24 min
Bit rate                                 : 95 b/s
Count of elements                        : 1867
Stream size                              : 59.3 KiB (0%)
Language                                 : English
Default                                  : Yes
Forced                                   : No

Menu
00:00:00.000                             : en:1
00:06:37.000                             : en:2
00:15:16.000                             : en:3
00:24:55.000                             : en:4
00:35:02.000                             : en:5
00:44:59.000                             : en:6
00:56:34.000                             : en:7
01:04:16.000                             : en:8
01:15:56.000                             : en:9
01:21:51.000                             : en:10

Screenshots



Download

https://subyshare.com/ddxv7d6kr86k/Hurricane.Bianca.2.From.Russia.With.Hate.2017.1080p.WEB-DL.DD5.1.part1.rar.html
https://subyshare.com/4zv41tzcb6q4/Hurricane.Bianca.2.From.Russia.With.Hate.2017.1080p.WEB-DL.DD5.1.part2.rar.html
https://subyshare.com/atu8yzt7aien/Hurricane.Bianca.2.From.Russia.With.Hate.2017.1080p.WEB-DL.DD5.1.part3.rar.html