Hunting Season 2016 1080p WEB-DL DD5.1 H264-FGT

Title: Hunting Season
Year: 2016
Time: 83 min
Genre: Thriller / Thriller
Directed by: Eduardo Castrillo
Starring: Tom Sizemore / Eric Roberts / Clifton Powell / Miguel A. Nunez Jr. / Marcus D. Spencer
IMDB Rating: 3.2
IMDB URL: http://www.imdb.com/title/tt4946336/
Plot:
Two FBI agents track down a missing person’s case which leads them to a group of stock brokers who hunt people for sport.

Video
ID                                       : 1
Format                                   : AVC
Format/Info                              : Advanced Video Codec
Format profile                           : [email protected]
Format settings                          : CABAC / 4 Ref Frames
Format settings, CABAC                   : Yes
Format settings, ReFrames                : 4 frames
Codec ID                                 : V_MPEG4/ISO/AVC
Duration                                 : 1 h 23 min
Bit rate                                 : 4 671 kb/s
Width                                    : 1 920 pixels
Height                                   : 1 080 pixels
Display aspect ratio                     : 16:9
Frame rate mode                          : Constant
Frame rate                               : 23.976 (24000/1001) FPS
Color space                              : YUV
Chroma subsampling                       : 4:2:0
Bit depth                                : 8 bits
Scan type                                : Progressive
Bits/(Pixel*Frame)                       : 0.094
Stream size                              : 2.73 GiB (92%)
Title                                    : Hunting.Season.2016.1080p.WEB-DL.DD5.1.H.264-FGT
Default                                  : Yes
Forced                                   : No
Color range                              : Limited
Color primaries                          : BT.709
Transfer characteristics                 : BT.709
Matrix coefficients                      : BT.709

Audio
ID                                       : 2
Format                                   : AC-3
Format/Info                              : Audio Coding 3
Codec ID                                 : A_AC3
Duration                                 : 1 h 23 min
Bit rate mode                            : Constant
Bit rate                                 : 384 kb/s
Channel(s)                               : 6 channels
Channel positions                        : Front: L C R, Side: L R, LFE
Sampling rate                            : 44.1 kHz
Frame rate                               : 28.711 FPS (1536 SPF)
Bit depth                                : 16 bits
Compression mode                         : Lossy
Stream size                              : 230 MiB (8%)
Title                                    : Hunting.Season.2016.1080p.WEB-DL.DD5.1.H.264-FGT
Language                                 : English
Service kind                             : Complete Main
Default                                  : Yes
Forced                                   : No

Text
ID                                       : 3
Format                                   : UTF-8
Codec ID                                 : S_TEXT/UTF8
Codec ID/Info                            : UTF-8 Plain Text
Duration                                 : 1 h 16 min
Bit rate                                 : 75 b/s
Count of elements                        : 1371
Stream size                              : 42.2 KiB (0%)
Language                                 : English
Default                                  : Yes
Forced                                   : No

Menu
00:00:00.000                             : en:Chapter 1
00:05:56.000                             : en:Chapter 2
00:10:13.000                             : en:Chapter 3
00:18:43.000                             : en:Chapter 4
00:39:46.000                             : en:Chapter 5
00:51:48.000                             : en:Chapter 6
01:09:27.000                             : en:Chapter 7
01:20:59.000                             : en:Chapter 8

Screenshots



Download

https://subyshare.com/ylp3a66iufzz/Hunting.Season.2016.1080p.WEB-DL.DD5.1.H.part1.rar.html
https://subyshare.com/mc4cmkzu2nhn/Hunting.Season.2016.1080p.WEB-DL.DD5.1.H.part2.rar.html
https://subyshare.com/vq18iktk8p1n/Hunting.Season.2016.1080p.WEB-DL.DD5.1.H.part3.rar.html