Hostiles 2017 1080p WEB-DL DD5.1 H264-FGT

Title: Hostiles
Year: 2017
Time: 134 min
Genre: Adventure / Drama / Western
Directed by: Scott Cooper
Starring: Scott Shepherd / Rosamund Pike / Ava Cooper / Stella Cooper / David Midthunder
IMDB Rating: 7.3
IMDB URL: http://www.imdb.com/title/tt5478478/
Plot:
In 1892, after nearly two decades of fighting the Cheyenne, the Apache, and the Comanche natives, the United States Cavalry Captain and war hero, Joseph Blocker, is ordered to escort the ailing Cheyenne chief, Yellow Hawk–his most despised enemy–to his ancestral home in Montana’s Valley of the Bears. Nauseated with a baleful anger, Joseph’s unwelcome final assignment in the feral American landscape is further complicated, when the widowed settler, Rosalie Quaid, is taken in by the band of soldiers, as aggressive packs of marauding Comanches who are still on the warpath, are thirsty for blood. In a territory crawling with hostiles, can the seasoned Captain do his duty one last time? Written by Nick Riganas

Video
ID                                       : 1
Format                                   : AVC
Format/Info                              : Advanced Video Codec
Format profile                           : [email protected]
Format settings                          : CABAC / 5 Ref Frames
Format settings, CABAC                   : Yes
Format settings, ReFrames                : 5 frames
Codec ID                                 : V_MPEG4/ISO/AVC
Duration                                 : 2 h 13 min
Bit rate                                 : 4 518 kb/s
Width                                    : 1 920 pixels
Height                                   : 792 pixels
Display aspect ratio                     : 2.40:1
Frame rate mode                          : Constant
Frame rate                               : 23.976 (23976/1000) FPS
Color space                              : YUV
Chroma subsampling                       : 4:2:0
Bit depth                                : 8 bits
Scan type                                : Progressive
Bits/(Pixel*Frame)                       : 0.124
Stream size                              : 4.22 GiB (92%)
Title                                    : Hostiles.2017.1080p.WEB-DL.DD5.1.H264-FGT
Language                                 : English
Default                                  : Yes
Forced                                   : No
Color range                              : Limited
Color primaries                          : BT.709
Transfer characteristics                 : BT.709
Matrix coefficients                      : BT.709

Audio
ID                                       : 2
Format                                   : AC-3
Format/Info                              : Audio Coding 3
Codec ID                                 : A_AC3
Duration                                 : 2 h 13 min
Bit rate mode                            : Constant
Bit rate                                 : 384 kb/s
Channel(s)                               : 6 channels
Channel positions                        : Front: L C R, Side: L R, LFE
Sampling rate                            : 48.0 kHz
Frame rate                               : 31.250 FPS (1536 SPF)
Bit depth                                : 16 bits
Compression mode                         : Lossy
Stream size                              : 367 MiB (8%)
Title                                    : Hostiles.2017.1080p.WEB-DL.DD5.1.H264-FGT
Language                                 : English
Service kind                             : Complete Main
Default                                  : Yes
Forced                                   : No

Text
ID                                       : 3
Format                                   : UTF-8
Codec ID                                 : S_TEXT/UTF8
Codec ID/Info                            : UTF-8 Plain Text
Duration                                 : 1 h 37 min
Bit rate                                 : 3 b/s
Count of elements                        : 106
Stream size                              : 2.24 KiB (0%)
Title                                    : FORCED
Language                                 : English
Default                                  : Yes
Forced                                   : Yes

Menu
00:00:00.000                             : en:1
00:06:55.000                             : en:2
00:13:20.000                             : en:3
00:20:15.000                             : en:4
00:25:12.000                             : en:5
00:31:22.000                             : en:6
00:40:06.000                             : en:7
00:47:02.000                             : en:8
00:53:37.000                             : en:9
01:00:01.000                             : en:10
01:05:57.000                             : en:11
01:13:28.000                             : en:12
01:19:50.000                             : en:13
01:25:12.000                             : en:14
01:34:18.000                             : en:15
01:39:16.000                             : en:16
01:44:52.000                             : en:17
01:51:51.000                             : en:18
02:01:12.000                             : en:19
02:07:07.000                             : en:20

Screenshots



Download

https://subyshare.com/mgf76gxip660/Hostiles.2017.1080p.WEB-DL.DD5.1.part1.rar.html
https://subyshare.com/lmii86cku7f3/Hostiles.2017.1080p.WEB-DL.DD5.1.part2.rar.html
https://subyshare.com/6x7rvnxlddtz/Hostiles.2017.1080p.WEB-DL.DD5.1.part3.rar.html
https://subyshare.com/uxieqc69vmlg/Hostiles.2017.1080p.WEB-DL.DD5.1.part4.rar.html