Honey Rise Up and Dance 2018 1080p WEB-DL DD5.1 H264-FGT

Title: Honey: Rise Up and Dance
Year: 2018
Time: 100 min
Genre: Drama / Music
Directed by: Bille Woodruff
Starring: Teyana Taylor / Bryshere Y. Gray / Sierra Aylina McClain / Charmin Lee / Candice Craig
IMDB Rating: 6.5
IMDB URL: http://www.imdb.com/title/tt7021508/
Plot:
Aspiring street dancer Skyler (Teyana Taylor) is at a major crossroads in her life. She’s decided to try-out for the same dance crew as her formally trained sister Tosha (Sierra McClain) in order to compete for a college scholarship, but is discouraged by her family and boyfriend who doubt that her raw, edgy talent is enough for her to win. Determined to prove them all wrong, Skyler practices nonstop in Atlanta’s underground dance scene and catches the eye of Tyrell (Bryshere Y. Gray). He helps her take her sexy dance and hip-hop battle skills to the next level in order to achieve her dreams.

Video
ID                                       : 1
Format                                   : AVC
Format/Info                              : Advanced Video Codec
Format profile                           : [email protected]
Format settings                          : CABAC / 4 Ref Frames
Format settings, CABAC                   : Yes
Format settings, ReFrames                : 4 frames
Codec ID                                 : V_MPEG4/ISO/AVC
Duration                                 : 1 h 40 min
Bit rate                                 : 5 111 kb/s
Width                                    : 1 916 pixels
Height                                   : 1 072 pixels
Display aspect ratio                     : 16:9
Frame rate mode                          : Constant
Frame rate                               : 23.976 (23976/1000) FPS
Color space                              : YUV
Chroma subsampling                       : 4:2:0
Bit depth                                : 8 bits
Scan type                                : Progressive
Bits/(Pixel*Frame)                       : 0.104
Stream size                              : 3.58 GiB (93%)
Title                                    : Honey.Rise.Up.and.Dance.2018.1080p.WEB-DL.DD5.1.H.264-FGT
Language                                 : English
Default                                  : Yes
Forced                                   : No
Color range                              : Limited
Color primaries                          : BT.709
Transfer characteristics                 : BT.709
Matrix coefficients                      : BT.709

Audio
ID                                       : 2
Format                                   : AC-3
Format/Info                              : Audio Coding 3
Codec ID                                 : A_AC3
Duration                                 : 1 h 40 min
Bit rate mode                            : Constant
Bit rate                                 : 384 kb/s
Channel(s)                               : 6 channels
Channel positions                        : Front: L C R, Side: L R, LFE
Sampling rate                            : 48.0 kHz
Frame rate                               : 31.250 FPS (1536 SPF)
Bit depth                                : 16 bits
Compression mode                         : Lossy
Stream size                              : 275 MiB (7%)
Title                                    : Honey.Rise.Up.and.Dance.2018.1080p.WEB-DL.DD5.1.H.264-FGT
Language                                 : English
Service kind                             : Complete Main
Default                                  : Yes
Forced                                   : No

Text
ID                                       : 3
Format                                   : UTF-8
Codec ID                                 : S_TEXT/UTF8
Codec ID/Info                            : UTF-8 Plain Text
Duration                                 : 1 h 39 min
Bit rate                                 : 93 b/s
Count of elements                        : 1848
Stream size                              : 68.7 KiB (0%)
Language                                 : English
Default                                  : Yes
Forced                                   : No

Menu
00:00:00.000                             : en:1
00:04:24.472                             : en:2
00:07:16.519                             : en:3
00:12:21.365                             : en:4
00:18:45.332                             : en:5
00:23:00.086                             : en:6
00:29:33.521                             : en:7
00:33:46.190                             : en:8
00:38:21.173                             : en:9
00:42:06.898                             : en:10
00:47:56.581                             : en:11
00:52:24.056                             : en:12
01:00:38.550                             : en:13
01:05:35.305                             : en:14
01:10:10.913                             : en:15
01:13:19.726                             : en:16
01:18:44.801                             : en:17
01:22:38.784                             : en:18
01:27:48.051                             : en:19
01:34:58.689                             : en:20

Screenshots



Download

https://subyshare.com/mqcytnhqeo2l/Honey.Rise.Up.and.Dance.2018.1080p.WEB-DL.DD5.1.H.part1.rar.html
https://subyshare.com/kxit2pml7k4b/Honey.Rise.Up.and.Dance.2018.1080p.WEB-DL.DD5.1.H.part2.rar.html
https://subyshare.com/kd3c49eju39a/Honey.Rise.Up.and.Dance.2018.1080p.WEB-DL.DD5.1.H.part3.rar.html