Habit 2017 1080p WEB-DL DD5.1 H264-FGT

Title: Habit
Year: 2017
Time: 90 min
Genre: Horror
Directed by: Simeon Halligan
Starring: Jessica Barden / Roxanne Pallett / Elliot James Langridge / William Ash / Sally Carman
IMDB Rating: 5.4
IMDB URL: http://www.imdb.com/title/tt5240258/
Plot:
Manchester, the present. Michael divides his time between the job center and the pub. A chance meeting with Lee, an introduction to her Uncle Ian and a heavy night on the lash lead to a job working the door at a Northern Quarter massage parlor. After witnessing the violent death of one of the punters, Michael experiences blood-drenched flashbacks and feels himself being sucked into a twilight world that he doesn’t understand but that is irresistibly attractive. When he eventually finds out what goes on in the room below Cloud 9, Michaels’ life will never be the same again.

Video
ID                                       : 1
Format                                   : AVC
Format/Info                              : Advanced Video Codec
Format profile                           : [email protected]
Format settings                          : CABAC / 5 Ref Frames
Format settings, CABAC                   : Yes
Format settings, ReFrames                : 5 frames
Codec ID                                 : V_MPEG4/ISO/AVC
Duration                                 : 1 h 36 min
Bit rate                                 : 4 561 kb/s
Width                                    : 1 918 pixels
Height                                   : 802 pixels
Display aspect ratio                     : 2.40:1
Frame rate mode                          : Constant
Frame rate                               : 24.000 FPS
Color space                              : YUV
Chroma subsampling                       : 4:2:0
Bit depth                                : 8 bits
Scan type                                : Progressive
Bits/(Pixel*Frame)                       : 0.124
Stream size                              : 3.07 GiB (92%)
Title                                    : Habit.2017.1080p.WEB-DL.DD5.1.H264-FGT
Language                                 : English
Default                                  : Yes
Forced                                   : No
Color range                              : Limited
Color primaries                          : BT.709
Transfer characteristics                 : BT.709
Matrix coefficients                      : BT.709

Audio
ID                                       : 2
Format                                   : AC-3
Format/Info                              : Audio Coding 3
Codec ID                                 : A_AC3
Duration                                 : 1 h 36 min
Bit rate mode                            : Constant
Bit rate                                 : 384 kb/s
Channel(s)                               : 6 channels
Channel positions                        : Front: L C R, Side: L R, LFE
Sampling rate                            : 48.0 kHz
Frame rate                               : 31.250 FPS (1536 SPF)
Bit depth                                : 16 bits
Compression mode                         : Lossy
Delay relative to video                  : -42 ms
Stream size                              : 265 MiB (8%)
Title                                    : Habit.2017.1080p.WEB-DL.DD5.1.H264-FGT
Language                                 : English
Service kind                             : Complete Main
Default                                  : Yes
Forced                                   : No

Menu
00:00:00.000                             : en:Chapter 1
00:23:43.500                             : en:Chapter 2
00:47:19.666                             : en:Chapter 3
01:01:22.041                             : en:Chapter 4
01:20:02.207                             : en:Chapter 5
01:33:52.915                             : en:Chapter 6

Screenshots



Download

https://subyshare.com/1b1iv9qrbfc1/Habit.2017.1080p.WEB-DL.DD5.1.part1.rar.html
https://subyshare.com/qqmc9le4zi8l/Habit.2017.1080p.WEB-DL.DD5.1.part2.rar.html
https://subyshare.com/l0ewl8vhkkpd/Habit.2017.1080p.WEB-DL.DD5.1.part3.rar.html