Gringo 2018 1080p WEB-DL DD5.1 H264-FGT

Title: Gringo
Year: 2018
Time: 111 min
Genre: Action / Comedy / Crime
Directed by: Nash Edgerton
Starring: Joel Edgerton / Charlize Theron / David Oyelowo / Thandie Newton / Bashir Salahuddin
IMDB Rating: 6
IMDB URL: http://www.imdb.com/title/tt3721964/
Plot:
An exhilarating mix of dark comedy, white-knuckle action and dramatic intrigue, Gringo joyrides into Mexico, where mild-mannered businessman Harold Soyinka (David Oyelowo) finds himself at the mercy of his back-stabbing business colleagues back home, local drug lords and a morally conflicted black-ops mercenary. Crossing the line from law-abiding citizen to wanted criminal, Harold battles to survive his increasingly dangerous situation in ways that raise the question: Is he out of his depth – or two steps ahead? Written by Amazon Studios

Video
ID                                       : 1
Format                                   : AVC
Format/Info                              : Advanced Video Codec
Format profile                           : [email protected]
Format settings                          : CABAC / 5 Ref Frames
Format settings, CABAC                   : Yes
Format settings, ReFrames                : 5 frames
Codec ID                                 : V_MPEG4/ISO/AVC
Duration                                 : 1 h 50 min
Bit rate                                 : 4 574 kb/s
Width                                    : 1 916 pixels
Height                                   : 798 pixels
Display aspect ratio                     : 2.40:1
Frame rate mode                          : Constant
Frame rate                               : 23.976 (23976/1000) FPS
Color space                              : YUV
Chroma subsampling                       : 4:2:0
Bit depth                                : 8 bits
Scan type                                : Progressive
Bits/(Pixel*Frame)                       : 0.125
Stream size                              : 3.53 GiB (92%)
Title                                    : Gringo.2018.1080p.WEB-DL.DD5.1.H264-FGT
Language                                 : English
Default                                  : Yes
Forced                                   : No
Color range                              : Limited
Color primaries                          : BT.709
Transfer characteristics                 : BT.709
Matrix coefficients                      : BT.709

Audio
ID                                       : 2
Format                                   : AC-3
Format/Info                              : Audio Coding 3
Codec ID                                 : A_AC3
Duration                                 : 1 h 50 min
Bit rate mode                            : Constant
Bit rate                                 : 384 kb/s
Channel(s)                               : 6 channels
Channel positions                        : Front: L C R, Side: L R, LFE
Sampling rate                            : 48.0 kHz
Frame rate                               : 31.250 FPS (1536 SPF)
Bit depth                                : 16 bits
Compression mode                         : Lossy
Stream size                              : 304 MiB (8%)
Title                                    : Gringo.2018.1080p.WEB-DL.DD5.1.H264-FGT
Language                                 : English
Service kind                             : Complete Main
Default                                  : Yes
Forced                                   : No

Text
ID                                       : 3
Format                                   : UTF-8
Codec ID                                 : S_TEXT/UTF8
Codec ID/Info                            : UTF-8 Plain Text
Duration                                 : 1 h 41 min
Bit rate                                 : 57 b/s
Count of elements                        : 1301
Stream size                              : 42.6 KiB (0%)
Language                                 : English
Default                                  : Yes
Forced                                   : No

Menu
00:00:00.000                             : en:1
00:02:30.025                             : en:2
00:08:38.059                             : en:3
00:14:50.639                             : en:4
00:19:44.307                             : en:5
00:26:12.445                             : en:6
00:30:00.798                             : en:7
00:34:13.926                             : en:8
00:42:00.851                             : en:9
00:49:15.952                             : en:10
00:57:13.554                             : en:11
01:02:58.190                             : en:12
01:09:41.801                             : en:13
01:16:22.201                             : en:14
01:20:39.374                             : en:15
01:25:55.106                             : en:16
01:29:15.473                             : en:17
01:33:47.953                             : en:18
01:39:07.772                             : en:19
01:43:29.909                             : en:20

Screenshots



Download

https://subyshare.com/pnoetfw1w96q/Gringo.2018.1080p.WEB-DL.DD5.1.part1.rar.html
https://subyshare.com/zcjvkhvh3f5m/Gringo.2018.1080p.WEB-DL.DD5.1.part2.rar.html
https://subyshare.com/r206nfo09s4m/Gringo.2018.1080p.WEB-DL.DD5.1.part3.rar.html