Ghostland 2018 1080p BluRay x264 DD5.1-FGT

Title: Ghostland
Year: 2018
Time: 91 min
Genre: Drama / Horror / Mystery / Thriller
Directed by: Pascal Laugier
Starring: Crystal Reed / Mylène Farmer / Anastasia Phillips / Emilia Jones / Taylor Hickson
IMDB Rating: 6.4
IMDB URL: http://www.imdb.com/title/tt6195094/
Plot:
The story follows a mother of two who inherits a home from her aunt. On the first night in the new home, she is confronted with murderous intruders and fights for her daughters’ lives. Sixteen years later when the daughters reunite at the house, things get really strange.

Video
ID                                       : 1
Format                                   : AVC
Format/Info                              : Advanced Video Codec
Format profile                           : [email protected]
Format settings                          : CABAC / 5 Ref Frames
Format settings, CABAC                   : Yes
Format settings, ReFrames                : 5 frames
Codec ID                                 : V_MPEG4/ISO/AVC
Duration                                 : 1 h 31 min
Bit rate                                 : 10.5 Mb/s
Width                                    : 1 920 pixels
Height                                   : 804 pixels
Display aspect ratio                     : 2.40:1
Frame rate mode                          : Constant
Frame rate                               : 24.000 FPS
Color space                              : YUV
Chroma subsampling                       : 4:2:0
Bit depth                                : 8 bits
Scan type                                : Progressive
Bits/(Pixel*Frame)                       : 0.283
Stream size                              : 6.69 GiB (94%)
Title                                    : Ghostland.2018.1080p.BluRay.x264.DTS-FGT
Writing library                          : x264 core 142 r2479 dd79a61
Encoding settings                        : cabac=1 / ref=5 / deblock=1:-3:-3 / analyse=0x3:0x133 / me=umh / subme=11 / psy=1 / psy_rd=1.00:0.00 / mixed_ref=1 / me_range=48 / chroma_me=1 / trellis=2 / 8x8dct=1 / cqm=0 / deadzone=21,11 / fast_pskip=1 / chroma_qp_offset=-2 / threads=12 / lookahead_threads=3 / sliced_threads=0 / nr=0 / decimate=1 / interlaced=0 / bluray_compat=0 / constrained_intra=0 / bframes=10 / b_pyramid=2 / b_adapt=2 / b_bias=0 / direct=3 / weightb=1 / open_gop=0 / weightp=0 / keyint=240 / keyint_min=24 / scenecut=40 / intra_refresh=0 / rc_lookahead=50 / rc=2pass / mbtree=1 / bitrate=10500 / ratetol=1.0 / qcomp=0.60 / qpmin=0 / qpmax=69 / qpstep=4 / cplxblur=20.0 / qblur=0.5 / vbv_maxrate=62500 / vbv_bufsize=78125 / nal_hrd=none / filler=0 / ip_ratio=1.40 / aq=1:1.00
Default                                  : Yes
Forced                                   : No
Color range                              : Limited
Color primaries                          : BT.709
Transfer characteristics                 : BT.709
Matrix coefficients                      : BT.709

Audio
ID                                       : 2
Format                                   : AC-3
Format/Info                              : Audio Coding 3
Codec ID                                 : A_AC3
Duration                                 : 1 h 31 min
Bit rate mode                            : Constant
Bit rate                                 : 640 kb/s
Channel(s)                               : 6 channels
Channel positions                        : Front: L C R, Side: L R, LFE
Sampling rate                            : 48.0 kHz
Frame rate                               : 31.250 FPS (1536 SPF)
Bit depth                                : 16 bits
Compression mode                         : Lossy
Stream size                              : 418 MiB (6%)
Title                                    : Ghostland.2018.1080p.BluRay.x264.DTS-FGT
Language                                 : English
Service kind                             : Complete Main
Default                                  : Yes
Forced                                   : No

Menu
00:00:00.000                             : en:Chapter 01
00:01:29.750                             : en:Chapter 02
00:10:57.375                             : en:Chapter 03
00:19:48.583                             : en:Chapter 04
00:29:28.708                             : en:Chapter 05
00:41:00.833                             : en:Chapter 06
00:51:49.750                             : en:Chapter 07
01:03:50.250                             : en:Chapter 08
01:16:10.666                             : en:Chapter 09

Screenshots



Download

https://subyshare.com/hjd2oafhx0rw/Ghostland.2018.1080p.BluRay.x264.DD5.part1.rar.html
https://subyshare.com/64xjpr1zucsa/Ghostland.2018.1080p.BluRay.x264.DD5.part2.rar.html
https://subyshare.com/7bly3akvt33m/Ghostland.2018.1080p.BluRay.x264.DD5.part3.rar.html
https://subyshare.com/xp2u4nfvn5jo/Ghostland.2018.1080p.BluRay.x264.DD5.part4.rar.html
https://subyshare.com/stsorkdnxu7j/Ghostland.2018.1080p.BluRay.x264.DD5.part5.rar.html