Gemini 2017 1080p BluRay x264 DTS-MT

Title: Gemini
Year: 2017
Time: 93 min
Genre: Mystery / Thriller
Directed by: Aaron Katz
Starring: Lola Kirke / Zoë Kravitz / John Cho / Greta Lee / Ricki Lake
IMDB Rating: 6.1
IMDB URL: http://www.imdb.com/title/tt5795086/
Plot:
A heinous crime tests the complex relationship between a tenacious personal assistant and her Hollywood starlet boss. As the assistant travels across Los Angeles to unravel the mystery, she must stay one step ahead of a determined policeman and confront her own understanding of friendship, truth and celebrity.

Video
ID                                       : 1
Format                                   : AVC
Format/Info                              : Advanced Video Codec
Format profile                           : [email protected]
Format settings                          : CABAC / 5 Ref Frames
Format settings, CABAC                   : Yes
Format settings, ReFrames                : 5 frames
Codec ID                                 : V_MPEG4/ISO/AVC
Duration                                 : 1 h 33 min
Bit rate                                 : 15.5 Mb/s
Width                                    : 1 920 pixels
Height                                   : 804 pixels
Display aspect ratio                     : 2.40:1
Frame rate mode                          : Constant
Frame rate                               : 23.976 (24000/1001) FPS
Color space                              : YUV
Chroma subsampling                       : 4:2:0
Bit depth                                : 8 bits
Scan type                                : Progressive
Bits/(Pixel*Frame)                       : 0.420
Stream size                              : 10.1 GiB (91%)
Title                                    : Gemini.2017.1080p.BluRay.x264.DTS-MT
Language                                 : English
Default                                  : Yes
Forced                                   : No

Audio
ID                                       : 2
Format                                   : DTS
Format/Info                              : Digital Theater Systems
Codec ID                                 : A_DTS
Duration                                 : 1 h 33 min
Bit rate mode                            : Constant
Bit rate                                 : 1 509 kb/s
Channel(s)                               : 6 channels
Channel positions                        : Front: L C R, Side: L R, LFE
Sampling rate                            : 48.0 kHz
Frame rate                               : 93.750 FPS (512 SPF)
Bit depth                                : 24 bits
Compression mode                         : Lossy
Stream size                              : 1 004 MiB (9%)
Title                                    : Gemini.2017.1080p.BluRay.x264.DTS-MT
Language                                 : English
Default                                  : Yes
Forced                                   : No


Screenshots



Download

https://subyshare.com/ugyt6zimh1im/Gemini.2017.1080p.BluRay.x264.part1.rar.html
https://subyshare.com/2api0jms003t/Gemini.2017.1080p.BluRay.x264.part2.rar.html
https://subyshare.com/q7d0rotux7s1/Gemini.2017.1080p.BluRay.x264.part3.rar.html
https://subyshare.com/cg3tdvbaiah7/Gemini.2017.1080p.BluRay.x264.part4.rar.html
https://subyshare.com/1312ahkikywy/Gemini.2017.1080p.BluRay.x264.part5.rar.html
https://subyshare.com/e10h3qfw4tll/Gemini.2017.1080p.BluRay.x264.part6.rar.html
https://subyshare.com/1rd1w7qy4gfw/Gemini.2017.1080p.BluRay.x264.part7.rar.html
https://subyshare.com/66hnbskvsw06/Gemini.2017.1080p.BluRay.x264.part8.rar.html