From Straight As to XXX 2017 1080p WEB-DL AAC2.0 H264-FGT

Title: From Straight A’s to XXX
Year: 2017
Time: 87 min
Genre: Drama / Drama
Directed by: Vanessa Parise
Starring: Haley Pullos / Sasha Clements / Judd Nelson / Jessica Lu / Peter Graham-Gaudreau
IMDB Rating: 5.2
IMDB URL: http://www.imdb.com/title/tt6237208/
Plot:
When a change of circumstances leaves Miriam unable to pay her college tuition, she makes a surprising decision: to start performing in adult films, using the pseudonym Belle Knox. Miriam lies to her family and her friends at school, keeping her double life a secret. But soon rumours spread and Miriam becomes the subject of vicious online attacks and unwanted attention. Miriam fights back: she talks to the media, saying her new line of work empowers her as a feminist. But her confident stand has unintended consequences. Miriam is shunned by her conservative family and her colleagues in the adult film world. One impulsive decision has quickly spiralled out of control – and Miriam’s problems are being held against her. Written by Sepia Films

Video
ID                                       : 1
Format                                   : AVC
Format/Info                              : Advanced Video Codec
Format profile                           : [email protected]
Format settings                          : CABAC / 4 Ref Frames
Format settings, CABAC                   : Yes
Format settings, ReFrames                : 4 frames
Codec ID                                 : V_MPEG4/ISO/AVC
Duration                                 : 1 h 28 min
Bit rate                                 : 5 187 kb/s
Width                                    : 1 910 pixels
Height                                   : 1 070 pixels
Display aspect ratio                     : 16:9
Frame rate mode                          : Constant
Frame rate                               : 23.976 (23976/1000) FPS
Color space                              : YUV
Chroma subsampling                       : 4:2:0
Bit depth                                : 8 bits
Scan type                                : Progressive
Bits/(Pixel*Frame)                       : 0.106
Stream size                              : 3.19 GiB (98%)
Title                                    : From.Straight.As.to.XXX.2017.1080p.WEB-DL.AAC2.0.H264-FGT
Language                                 : English
Default                                  : Yes
Forced                                   : No
Color range                              : Limited
Color primaries                          : BT.709
Transfer characteristics                 : BT.709
Matrix coefficients                      : BT.709

Audio
ID                                       : 2
Format                                   : AAC
Format/Info                              : Advanced Audio Codec
Format profile                           : LC
Codec ID                                 : A_AAC-2
Duration                                 : 1 h 28 min
Bit rate                                 : 125 kb/s
Channel(s)                               : 2 channels
Channel positions                        : Front: L R
Sampling rate                            : 48.0 kHz
Frame rate                               : 46.875 FPS (1024 SPF)
Compression mode                         : Lossy
Stream size                              : 78.8 MiB (2%)
Title                                    : From.Straight.As.to.XXX.2017.1080p.WEB-DL.AAC2.0.H264-FGT
Language                                 : English
Default                                  : Yes
Forced                                   : No

Text
ID                                       : 3
Format                                   : UTF-8
Codec ID                                 : S_TEXT/UTF8
Codec ID/Info                            : UTF-8 Plain Text
Duration                                 : 1 h 25 min
Bit rate                                 : 70 b/s
Count of elements                        : 1606
Stream size                              : 44.4 KiB (0%)
Language                                 : English
Default                                  : Yes
Forced                                   : No

Screenshots



Download

https://subyshare.com/jmwyik11ty8r/From.Straight.As.to.XXX.2017.1080p.WEB-DL.AAC2.0.part1.rar.html
https://subyshare.com/apcodes31ugd/From.Straight.As.to.XXX.2017.1080p.WEB-DL.AAC2.0.part2.rar.html
https://subyshare.com/hecbfhfs78w3/From.Straight.As.to.XXX.2017.1080p.WEB-DL.AAC2.0.part3.rar.html