Forever My Girl 2018 1080p WEB-DL DD5.1 H264-FGT

Title: Forever My Girl
Year: 2018
Time: 108 min
Genre: Drama / Music / Romance
Directed by: Bethany Ashton Wolf
Starring: Alex Roe / Jessica Rothe / John Benjamin Hickey / Abby Ryder Fortson / Tyler Riggs
IMDB Rating: 6.2
IMDB URL: http://www.imdb.com/title/tt4103724/
Plot:
After being gone for a decade a country star returns home to the love he left behind.

Video
ID                                       : 1
Format                                   : AVC
Format/Info                              : Advanced Video Codec
Format profile                           : [email protected]
Format settings                          : CABAC / 5 Ref Frames
Format settings, CABAC                   : Yes
Format settings, ReFrames                : 5 frames
Codec ID                                 : V_MPEG4/ISO/AVC
Duration                                 : 1 h 47 min
Bit rate                                 : 4 592 kb/s
Width                                    : 1 912 pixels
Height                                   : 792 pixels
Display aspect ratio                     : 2.40:1
Frame rate mode                          : Constant
Frame rate                               : 23.976 (24000/1001) FPS
Color space                              : YUV
Chroma subsampling                       : 4:2:0
Bit depth                                : 8 bits
Scan type                                : Progressive
Bits/(Pixel*Frame)                       : 0.126
Stream size                              : 3.46 GiB (92%)
Title                                    : Forever.My.Girl.2018.1080p.WEB-DL.DD5.1.H264-FGT
Language                                 : English
Default                                  : Yes
Forced                                   : No
Color range                              : Limited
Color primaries                          : BT.709
Transfer characteristics                 : BT.709
Matrix coefficients                      : BT.709

Audio
ID                                       : 2
Format                                   : AC-3
Format/Info                              : Audio Coding 3
Codec ID                                 : A_AC3
Duration                                 : 1 h 47 min
Bit rate mode                            : Constant
Bit rate                                 : 384 kb/s
Channel(s)                               : 6 channels
Channel positions                        : Front: L C R, Side: L R, LFE
Sampling rate                            : 48.0 kHz
Frame rate                               : 31.250 FPS (1536 SPF)
Bit depth                                : 16 bits
Compression mode                         : Lossy
Delay relative to video                  : -42 ms
Stream size                              : 296 MiB (8%)
Title                                    : Forever.My.Girl.2018.1080p.WEB-DL.DD5.1.H264-FGT
Language                                 : English
Service kind                             : Complete Main
Default                                  : Yes
Forced                                   : No

Menu
00:00:00.000                             : en:1
00:11:28.000                             : en:2
00:20:31.000                             : en:3
00:30:59.000                             : en:4
00:41:15.000                             : en:5
00:50:37.000                             : en:6
01:02:19.000                             : en:7
01:11:30.000                             : en:8
01:18:55.000                             : en:9
01:32:08.000                             : en:10
01:40:53.000                             : en:11

Screenshots



Download

https://subyshare.com/jidm3uzhpz7c/Forever.My.Girl.2018.1080p.WEB-DL.DD5.1.part1.rar.html
https://subyshare.com/2gv9o0jn8tgf/Forever.My.Girl.2018.1080p.WEB-DL.DD5.1.part2.rar.html
https://subyshare.com/jfbumzxjrars/Forever.My.Girl.2018.1080p.WEB-DL.DD5.1.part3.rar.html