Flay 2017 1080p WEB-DL DD5.1 H264-FGT

Title: Flay
Year: 2017
Time: 94 min
Genre: Drama / Fantasy / Horror / Mystery / Thriller
Directed by: Eric Pham
Starring: Violett Beane / Elle LaMont / A. Michael Baldwin / Sarah Joy Byington / Johnny Walter
IMDB Rating: 4.4
IMDB URL: http://www.imdb.com/title/tt3480662/
Plot:
After the death of her mother, an estranged daughter struggles to save her brother, and those around her from a malevolent faceless spirit.

Video
ID                                       : 1
Format                                   : AVC
Format/Info                              : Advanced Video Codec
Format profile                           : [email protected]
Format settings                          : CABAC / 4 Ref Frames
Format settings, CABAC                   : Yes
Format settings, ReFrames                : 4 frames
Codec ID                                 : V_MPEG4/ISO/AVC
Duration                                 : 1 h 33 min
Bit rate                                 : 4 696 kb/s
Width                                    : 1 912 pixels
Height                                   : 1 004 pixels
Display aspect ratio                     : 1.904
Frame rate mode                          : Constant
Frame rate                               : 23.976 (23976/1000) FPS
Color space                              : YUV
Chroma subsampling                       : 4:2:0
Bit depth                                : 8 bits
Scan type                                : Progressive
Bits/(Pixel*Frame)                       : 0.102
Stream size                              : 3.06 GiB (92%)
Title                                    : Flay.2017.1080p.WEB-DL.DD5.1.H264-FGT
Language                                 : English
Default                                  : Yes
Forced                                   : No
Color range                              : Limited
Color primaries                          : BT.709
Transfer characteristics                 : BT.709
Matrix coefficients                      : BT.709

Audio
ID                                       : 2
Format                                   : AC-3
Format/Info                              : Audio Coding 3
Codec ID                                 : A_AC3
Duration                                 : 1 h 33 min
Bit rate mode                            : Constant
Bit rate                                 : 384 kb/s
Channel(s)                               : 6 channels
Channel positions                        : Front: L C R, Side: L R, LFE
Sampling rate                            : 48.0 kHz
Frame rate                               : 31.250 FPS (1536 SPF)
Bit depth                                : 16 bits
Compression mode                         : Lossy
Delay relative to video                  : -42 ms
Stream size                              : 256 MiB (8%)
Title                                    : Flay.2017.1080p.WEB-DL.DD5.1.H264-FGT
Language                                 : English
Service kind                             : Complete Main
Default                                  : Yes
Forced                                   : No

Menu
00:00:00.000                             : en:1
00:06:42.819                             : en:2
00:16:02.170                             : en:3
00:26:54.989                             : en:4
00:37:28.622                             : en:5
00:49:04.901                             : en:6
00:59:20.016                             : en:7
01:09:41.721                             : en:8
01:19:59.463                             : en:9
01:31:13.887                             : en:10

Screenshots



Download

https://subyshare.com/rrh0xp4rctgx/Flay.2017.1080p.WEB-DL.DD5.1.part1.rar.html
https://subyshare.com/ck12cn3vof33/Flay.2017.1080p.WEB-DL.DD5.1.part2.rar.html
https://subyshare.com/n6ifo6wcrkl0/Flay.2017.1080p.WEB-DL.DD5.1.part3.rar.html