Every Day 2018 720p WEB-DL DD5.1 H264-FGT

Title: Every Day
Year: 2018
Time: 97 min
Genre: Drama / Fantasy / Romance
Directed by: Michael Sucsy
Starring: Angourie Rice / Justice Smith / Jeni Ross / Lucas Jade Zumann / Rory McDonald
IMDB Rating: 6
IMDB URL: http://www.imdb.com/title/tt7026672/
Plot:
Based on David Levithan’s acclaimed New York Times bestseller, Every Day tells the story of Rhiannon (Angourie Rice), a 16-year old girl who falls in love with a mysterious soul named “A” who inhabits a different body every day. Feeling an unmatched connection, Rhiannon and A work each day to find each other, not knowing what or who the next day will bring. The more the two fall in love, the more the realities of loving someone who is a different person every 24 hours takes a toll, leaving Rhiannon and “A” to face the hardest decision either has ever had to make. Written by MB

Video
ID                                       : 1
Format                                   : AVC
Format/Info                              : Advanced Video Codec
Format profile                           : [email protected]
Format settings                          : 2 Ref Frames
Format settings, CABAC                   : No
Format settings, ReFrames                : 2 frames
Codec ID                                 : V_MPEG4/ISO/AVC
Duration                                 : 1 h 37 min
Bit rate                                 : 4 065 kb/s
Width                                    : 1 280 pixels
Height                                   : 532 pixels
Display aspect ratio                     : 2.40:1
Frame rate mode                          : Constant
Frame rate                               : 23.976 (23976/1000) FPS
Color space                              : YUV
Chroma subsampling                       : 4:2:0
Bit depth                                : 8 bits
Scan type                                : Progressive
Bits/(Pixel*Frame)                       : 0.249
Stream size                              : 2.76 GiB (91%)
Title                                    : Every.Day.2018.720p.WEB-DL.DD5.1.H264-FGT
Language                                 : English
Default                                  : Yes
Forced                                   : No
Color range                              : Limited
Color primaries                          : BT.709
Transfer characteristics                 : BT.709
Matrix coefficients                      : BT.709

Audio
ID                                       : 2
Format                                   : AC-3
Format/Info                              : Audio Coding 3
Codec ID                                 : A_AC3
Duration                                 : 1 h 37 min
Bit rate mode                            : Constant
Bit rate                                 : 384 kb/s
Channel(s)                               : 6 channels
Channel positions                        : Front: L C R, Side: L R, LFE
Sampling rate                            : 48.0 kHz
Frame rate                               : 31.250 FPS (1536 SPF)
Bit depth                                : 16 bits
Compression mode                         : Lossy
Stream size                              : 267 MiB (9%)
Title                                    : Every.Day.2018.720p.WEB-DL.DD5.1.H264-FGT
Language                                 : English
Service kind                             : Complete Main
Default                                  : Yes
Forced                                   : No

Text
ID                                       : 3
Format                                   : UTF-8
Codec ID                                 : S_TEXT/UTF8
Codec ID/Info                            : UTF-8 Plain Text
Duration                                 : 1 h 29 min
Bit rate                                 : 57 b/s
Count of elements                        : 1370
Stream size                              : 37.8 KiB (0%)
Language                                 : English
Default                                  : Yes
Forced                                   : No

Menu
00:00:00.000                             : en:1
00:11:35.000                             : en:2
00:23:39.000                             : en:3
00:33:55.000                             : en:4
00:45:55.000                             : en:5
00:54:35.000                             : en:6
01:05:12.000                             : en:7
01:17:00.000                             : en:8
01:31:51.000                             : en:9

Screenshots



Download

https://subyshare.com/b0tz0mn78ppf/Every.Day.2018.720p.WEB-DL.DD5.1.part1.rar.html
https://subyshare.com/6rwi2n3rtgvf/Every.Day.2018.720p.WEB-DL.DD5.1.part2.rar.html
https://subyshare.com/m4bm0f1ng6ad/Every.Day.2018.720p.WEB-DL.DD5.1.part3.rar.html