Downrange 2017 1080p AMZN WEBRip DDP2.0 x264-QOQ

Title: Downrange
Year: 2017
Time: 90 min
Genre: Thriller
Directed by: Ryûhei Kitamura
Starring: Kelly Connaire / Stephanie Pearson / Rod Hernandez / Anthony Kirlew / Alexa Yeames
IMDB Rating: 5.3
IMDB URL: http://www.imdb.com/title/tt6138228/
Plot:
n/A

Video
ID                                       : 1
Format                                   : AVC
Format/Info                              : Advanced Video Codec
Format profile                           : [email protected]
Format settings                          : CABAC / 4 Ref Frames
Format settings, CABAC                   : Yes
Format settings, ReFrames                : 4 frames
Codec ID                                 : V_MPEG4/ISO/AVC
Duration                                 : 1 h 29 min
Bit rate mode                            : Variable
Bit rate                                 : 6 897 kb/s
Maximum bit rate                         : 15.0 Mb/s
Width                                    : 1 920 pixels
Height                                   : 1 080 pixels
Display aspect ratio                     : 16:9
Frame rate mode                          : Constant
Frame rate                               : 23.976 (24000/1001) FPS
Color space                              : YUV
Chroma subsampling                       : 4:2:0
Bit depth                                : 8 bits
Scan type                                : Progressive
Bits/(Pixel*Frame)                       : 0.139
Stream size                              : 4.32 GiB (97%)
Default                                  : Yes
Forced                                   : No
Color range                              : Limited
Color primaries                          : BT.709
Transfer characteristics                 : BT.709
Matrix coefficients                      : BT.709

Audio
ID                                       : 2
Format                                   : E-AC-3
Format/Info                              : Enhanced Audio Coding 3
Codec ID                                 : A_EAC3
Duration                                 : 1 h 29 min
Bit rate mode                            : Constant
Bit rate                                 : 224 kb/s
Channel(s)                               : 2 channels
Channel positions                        : Front: L R
Sampling rate                            : 48.0 kHz
Frame rate                               : 187.500 FPS (256 SPF)
Compression mode                         : Lossy
Stream size                              : 144 MiB (3%)
Language                                 : English
Service kind                             : Complete Main
Default                                  : Yes
Forced                                   : No

Text
ID                                       : 3
Format                                   : UTF-8
Codec ID                                 : S_TEXT/UTF8
Codec ID/Info                            : UTF-8 Plain Text
Duration                                 : 1 h 25 min
Bit rate                                 : 31 b/s
Count of elements                        : 866
Stream size                              : 20.1 KiB (0%)
Language                                 : English
Default                                  : No
Forced                                   : No


Screenshots



Download

https://subyshare.com/l794k6tc6rle/Downrange.2017.1080p.AMZN.WEBRip.DDP2.0.part1.rar.html
https://subyshare.com/j17471z3m4dr/Downrange.2017.1080p.AMZN.WEBRip.DDP2.0.part2.rar.html
https://subyshare.com/c8deet5bd5fs/Downrange.2017.1080p.AMZN.WEBRip.DDP2.0.part3.rar.html
https://subyshare.com/mkabxjay96r5/Downrange.2017.1080p.AMZN.WEBRip.DDP2.0.part4.rar.html