Den of Thieves 2018 1080p WEB-DL DD5.1 H264-FGT

Title: Den of Thieves
Year: 2018
Time: 140 min
Genre: Action / Crime / Drama / Mystery / Thriller
Directed by: Christian Gudegast
Starring: Gerard Butler / Pablo Schreiber / O’Shea Jackson Jr. / 50 Cent / Meadow Williams
IMDB Rating: 7.1
IMDB URL: http://www.imdb.com/title/tt1259528/
Plot:
A gritty L.A crime saga which follows the intersecting and often personally connected lives of an elite unit of the LA County Sheriff’s Dept. and the state’s most successful bank robbery crew as the outlaws plan a seemingly impossible heist on the Federal Reserve Bank of downtown Los Angeles. Written by STXfilms

Video
ID                                       : 1
Format                                   : AVC
Format/Info                              : Advanced Video Codec
Format profile                           : [email protected]
Format settings                          : CABAC / 5 Ref Frames
Format settings, CABAC                   : Yes
Format settings, ReFrames                : 5 frames
Codec ID                                 : V_MPEG4/ISO/AVC
Duration                                 : 2 h 20 min
Bit rate                                 : 4 586 kb/s
Width                                    : 1 912 pixels
Height                                   : 792 pixels
Display aspect ratio                     : 2.40:1
Frame rate mode                          : Constant
Frame rate                               : 23.976 (23976/1000) FPS
Color space                              : YUV
Chroma subsampling                       : 4:2:0
Bit depth                                : 8 bits
Scan type                                : Progressive
Bits/(Pixel*Frame)                       : 0.126
Stream size                              : 4.49 GiB (92%)
Title                                    : Den.of.Thieves.2018.1080p.WEB-DL.DD5.1.H264-FGT
Language                                 : English
Default                                  : Yes
Forced                                   : No
Color range                              : Limited
Color primaries                          : BT.709
Transfer characteristics                 : BT.709
Matrix coefficients                      : BT.709

Audio
ID                                       : 2
Format                                   : AC-3
Format/Info                              : Audio Coding 3
Codec ID                                 : A_AC3
Duration                                 : 2 h 20 min
Bit rate mode                            : Constant
Bit rate                                 : 384 kb/s
Channel(s)                               : 6 channels
Channel positions                        : Front: L C R, Side: L R, LFE
Sampling rate                            : 48.0 kHz
Frame rate                               : 31.250 FPS (1536 SPF)
Bit depth                                : 16 bits
Compression mode                         : Lossy
Delay relative to video                  : -42 ms
Stream size                              : 385 MiB (8%)
Title                                    : Den.of.Thieves.2018.1080p.WEB-DL.DD5.1.H264-FGT
Language                                 : English
Service kind                             : Complete Main
Default                                  : Yes
Forced                                   : No

Menu
00:00:00.000                             : en:1
00:09:15.000                             : en:2
00:18:58.000                             : en:3
00:31:49.000                             : en:4
00:38:14.000                             : en:5
00:48:11.000                             : en:6
00:58:05.000                             : en:7
01:08:43.000                             : en:8
01:16:24.000                             : en:9
01:26:19.000                             : en:10
01:41:35.000                             : en:11
01:49:43.000                             : en:12
02:08:22.000                             : en:13

Screenshots



Download

https://subyshare.com/j1gors30axx2/Den.of.Thieves.2018.1080p.WEB-DL.DD5.1.part1.rar.html
https://subyshare.com/c4vk8t5byryf/Den.of.Thieves.2018.1080p.WEB-DL.DD5.1.part2.rar.html
https://subyshare.com/0lfav9vzl8jk/Den.of.Thieves.2018.1080p.WEB-DL.DD5.1.part3.rar.html
https://subyshare.com/ca6zwte5g7p6/Den.of.Thieves.2018.1080p.WEB-DL.DD5.1.part4.rar.html