Darkest Hour 2017 1080p WEB-DL DD5.1 H264-FGT

Title: Darkest Hour
Year: 2017
Time: 125 min
Genre: Biography / Drama / History / War
Directed by: Joe Wright
Starring: Gary Oldman / Kristin Scott Thomas / Ben Mendelsohn / Lily James / Ronald Pickup
IMDB Rating: 7.4
IMDB URL: http://www.imdb.com/title/tt4555426/
Plot:
Within days of becoming Prime Minister of Great Britain, Winston Churchill (Gary Oldman) must face one of his most turbulent and defining trials: exploring a negotiated peace treaty with Nazi Germany, or standing firm to fight for the ideals, liberty and freedom of a nation. As the unstoppable Nazi forces roll across Western Europe and the threat of invasion is imminent, and with an unprepared public, a skeptical King, and his own party plotting against him, Churchill must withstand his darkest hour, rally a nation, and attempt to change the course of world history. Written by Focus Features

Video
ID                                       : 1
Format                                   : AVC
Format/Info                              : Advanced Video Codec
Format profile                           : [email protected]
Format settings                          : CABAC / 4 Ref Frames
Format settings, CABAC                   : Yes
Format settings, ReFrames                : 4 frames
Codec ID                                 : V_MPEG4/ISO/AVC
Duration                                 : 2 h 4 min
Bit rate                                 : 4 882 kb/s
Width                                    : 1 916 pixels
Height                                   : 1 032 pixels
Display aspect ratio                     : 1.85:1
Frame rate mode                          : Constant
Frame rate                               : 23.976 (24000/1001) FPS
Color space                              : YUV
Chroma subsampling                       : 4:2:0
Bit depth                                : 8 bits
Scan type                                : Progressive
Bits/(Pixel*Frame)                       : 0.103
Stream size                              : 4.26 GiB (93%)
Title                                    : Darkest.Hour.2017.1080p.WEB-DL.DD5.1.H264-FGT
Language                                 : English
Default                                  : Yes
Forced                                   : No
Color range                              : Limited
Color primaries                          : BT.709
Transfer characteristics                 : BT.709
Matrix coefficients                      : BT.709

Audio
ID                                       : 2
Format                                   : AC-3
Format/Info                              : Audio Coding 3
Codec ID                                 : A_AC3
Duration                                 : 2 h 4 min
Bit rate mode                            : Constant
Bit rate                                 : 384 kb/s
Channel(s)                               : 6 channels
Channel positions                        : Front: L C R, Side: L R, LFE
Sampling rate                            : 48.0 kHz
Frame rate                               : 31.250 FPS (1536 SPF)
Bit depth                                : 16 bits
Compression mode                         : Lossy
Stream size                              : 343 MiB (7%)
Title                                    : Darkest.Hour.2017.1080p.WEB-DL.DD5.1.H264-FGT
Language                                 : English
Service kind                             : Complete Main
Default                                  : No
Forced                                   : No

Text
ID                                       : 3
Format                                   : UTF-8
Codec ID                                 : S_TEXT/UTF8
Codec ID/Info                            : UTF-8 Plain Text
Duration                                 : 1 h 57 min
Bit rate                                 : 56 b/s
Count of elements                        : 1759
Stream size                              : 48.3 KiB (0%)
Language                                 : English
Default                                  : Yes
Forced                                   : No

Menu
00:00:00.000                             : en:1
00:05:21.029                             : en:2
00:10:18.951                             : en:3
00:14:00.589                             : en:4
00:22:34.060                             : en:5
00:29:24.178                             : en:6
00:37:10.519                             : en:7
00:41:05.587                             : en:8
00:48:27.904                             : en:9
00:56:17.498                             : en:10
01:02:39.463                             : en:11
01:10:58.003                             : en:12
01:18:42.467                             : en:13
01:24:06.791                             : en:14
01:30:26.629                             : en:15
01:35:59.753                             : en:16
01:39:34.968                             : en:17
01:45:21.105                             : en:18
01:52:56.226                             : en:19
01:59:46.010                             : en:20

Download:

https://subyshare.com/pq5e6p7n2ska/Darkest.Hour.2017.1080p.WEB-DL.DD5.1.part1.rar.html
https://subyshare.com/t6p50uq4ci86/Darkest.Hour.2017.1080p.WEB-DL.DD5.1.part2.rar.html
https://subyshare.com/mwrmg08c8ult/Darkest.Hour.2017.1080p.WEB-DL.DD5.1.part3.rar.html
https://subyshare.com/migfbxm1fdq6/Darkest.Hour.2017.1080p.WEB-DL.DD5.1.part4.rar.html

Leave a Reply

Your email address will not be published. Required fields are marked *