Cover Versions 2018 1080p WEB-DL DD5.1 H264-FGT

Title: Cover Versions
Year: 2018
Time: n/A
Genre: Mystery / Mystery
Directed by: Todd Berger
Starring: Katie Cassidy / Drake Bell / Jerry Trainor / Austin Swift / Debby Ryan
IMDB Rating: 5.6
IMDB URL: http://www.imdb.com/title/tt6109874/
Plot:
Four band members tell varying accounts of a night of sex, drugs, and murder before their first big show at a popular music festival.

Video
ID                                       : 1
Format                                   : AVC
Format/Info                              : Advanced Video Codec
Format profile                           : [email protected]
Format settings                          : CABAC / 4 Ref Frames
Format settings, CABAC                   : Yes
Format settings, ReFrames                : 4 frames
Format settings, GOP                     : N=1
Codec ID                                 : V_MPEG4/ISO/AVC
Duration                                 : 1 h 26 min
Bit rate                                 : 5 219 kb/s
Width                                    : 1 920 pixels
Height                                   : 1 038 pixels
Display aspect ratio                     : 1.85:1
Frame rate mode                          : Constant
Frame rate                               : 23.976 (23976/1000) FPS
Color space                              : YUV
Chroma subsampling                       : 4:2:0
Bit depth                                : 8 bits
Scan type                                : Progressive
Bits/(Pixel*Frame)                       : 0.109
Stream size                              : 3.17 GiB (93%)
Title                                    : Cover.Versions.2018.1080p.WEB-DL.DD5.1.H264-FGT
Language                                 : English
Default                                  : Yes
Forced                                   : No
Color range                              : Limited
Color primaries                          : BT.709
Transfer characteristics                 : BT.709
Matrix coefficients                      : BT.709

Audio
ID                                       : 2
Format                                   : AC-3
Format/Info                              : Audio Coding 3
Codec ID                                 : A_AC3
Duration                                 : 1 h 26 min
Bit rate mode                            : Constant
Bit rate                                 : 384 kb/s
Channel(s)                               : 6 channels
Channel positions                        : Front: L C R, Side: L R, LFE
Sampling rate                            : 48.0 kHz
Frame rate                               : 31.250 FPS (1536 SPF)
Bit depth                                : 16 bits
Compression mode                         : Lossy
Stream size                              : 238 MiB (7%)
Title                                    : Cover.Versions.2018.1080p.WEB-DL.DD5.1.H264-FGT
Language                                 : English
Service kind                             : Complete Main
Default                                  : Yes
Forced                                   : No

Menu
00:00:00.000                             : en:1
00:05:55.855                             : en:2
00:10:51.525                             : en:3
00:15:18.291                             : en:4
00:22:25.801                             : en:5
00:24:44.481                             : en:6
00:31:22.670                             : en:7
00:41:49.922                             : en:8
00:44:02.304                             : en:9
00:48:36.244                             : en:10
00:57:29.443                             : en:11
00:59:58.300                             : en:12
01:06:07.460                             : en:13
01:11:59.812                             : en:14
01:17:49.203                             : en:15
01:20:46.046                             : en:16


Screenshots



Download

https://subyshare.com/a3sphy1h4tme/Cover.Versions.2018.1080p.WEB-DL.DD5.1.part1.rar.html
https://subyshare.com/ycjgkec4wrxr/Cover.Versions.2018.1080p.WEB-DL.DD5.1.part2.rar.html
https://subyshare.com/mtwup0d4xrmh/Cover.Versions.2018.1080p.WEB-DL.DD5.1.part3.rar.html