Children of the Corn Runaway 2018 1080p WEB-DL DD5.1 H264-FGT

Title: Children of the Corn: Runaway
Year: 2018
Time: 82 min
Genre: Horror / Horror
Directed by: John Gulager
Starring: Clu Gulager / Marci Miller / Mary Kathryn Bryant / Diane Ayala Goldner / Molly Nikki Anderson
IMDB Rating: 4.3
IMDB URL: http://www.imdb.com/title/tt5565634/
Plot:
The plot of Children of the Corn: Runaway follows a young pregnant Ruth who escapes a murderous child cult in a small Midwestern town. She spends the next decade living anonymously in an attempt to spare her son the horrors that she experienced as a child. She lands in the small Oklahoma town, but something is following her. Now, she must confront this evil or lose her child.

Video
ID                                       : 1
Format                                   : AVC
Format/Info                              : Advanced Video Codec
Format profile                           : [email protected]
Format settings                          : CABAC / 5 Ref Frames
Format settings, CABAC                   : Yes
Format settings, ReFrames                : 5 frames
Codec ID                                 : V_MPEG4/ISO/AVC
Duration                                 : 1 h 22 min
Bit rate                                 : 4 544 kb/s
Width                                    : 1 912 pixels
Height                                   : 808 pixels
Display aspect ratio                     : 2.35:1
Frame rate mode                          : Constant
Frame rate                               : 23.976 (24000/1001) FPS
Color space                              : YUV
Chroma subsampling                       : 4:2:0
Bit depth                                : 8 bits
Scan type                                : Progressive
Bits/(Pixel*Frame)                       : 0.123
Stream size                              : 2.61 GiB (92%)
Title                                    : Children.of.the.Corn.Runaway.2018.1080p.WEB-DL.DD5.1.H.264-FGT
Language                                 : English
Default                                  : Yes
Forced                                   : No
Color range                              : Limited
Color primaries                          : BT.709
Transfer characteristics                 : BT.709
Matrix coefficients                      : BT.709

Audio
ID                                       : 2
Format                                   : AC-3
Format/Info                              : Audio Coding 3
Codec ID                                 : A_AC3
Duration                                 : 1 h 22 min
Bit rate mode                            : Constant
Bit rate                                 : 384 kb/s
Channel(s)                               : 6 channels
Channel positions                        : Front: L C R, Side: L R, LFE
Sampling rate                            : 48.0 kHz
Frame rate                               : 31.250 FPS (1536 SPF)
Bit depth                                : 16 bits
Compression mode                         : Lossy
Stream size                              : 226 MiB (8%)
Title                                    : Children.of.the.Corn.Runaway.2018.1080p.WEB-DL.DD5.1.H.264-FGT
Language                                 : English
Service kind                             : Complete Main
Default                                  : Yes
Forced                                   : No

Text
ID                                       : 3
Format                                   : UTF-8
Codec ID                                 : S_TEXT/UTF8
Codec ID/Info                            : UTF-8 Plain Text
Duration                                 : 1 h 21 min
Bit rate                                 : 39 b/s
Count of elements                        : 883
Stream size                              : 23.7 KiB (0%)
Language                                 : English
Default                                  : No
Forced                                   : No

Menu
00:00:00.000                             : en:1
00:11:57.000                             : en:2
00:25:54.000                             : en:3
00:33:45.000                             : en:4
00:46:17.000                             : en:5
00:59:11.000                             : en:6
01:08:29.000                             : en:7
01:19:26.000                             : en:8

Screenshots



Download

https://subyshare.com/hdgd28zoeng3/Children.of.the.Corn.Runaway.2018.1080p.WEB-DL.DD5.1.H.part1.rar.html
https://subyshare.com/zac0ynmwz868/Children.of.the.Corn.Runaway.2018.1080p.WEB-DL.DD5.1.H.part2.rar.html