Brigsby Bear 2017 1080p BluRay x264 DTS-HD MA 5.1-MT

Title: Brigsby Bear
Year: 2017
Time: 97 min
Genre: Comedy / Drama
Directed by: Dave McCary
Starring: Kyle Mooney / Mark Hamill / Jane Adams / Greg Kinnear / Matt Walsh
IMDB Rating: 7.5
IMDB URL: http://www.imdb.com/title/tt5805752/
Plot:
Brigsby Bear Adventures is a children’s TV show produced for an audience of one: James. When the show abruptly ends…

Video
ID                                       : 1
Format                                   : AVC
Format/Info                              : Advanced Video Codec
Format profile                           : HighL4.1
Format settings, CABAC                   : Yes
Format settings, ReFrames                : 5 frames
Codec ID                                 : V_MPEG4/ISO/AVC
Duration                                 : 1 h 37 min
Bit rate                                 : 8 375 kb/s
Width                                    : 1 920 pixels
Height                                   : 800 pixels
Display aspect ratio                     : 2.40:1
Frame rate mode                          : Constant
Frame rate                               : 23.976 (24000/1001) FPS
Color space                              : YUV
Chroma subsampling                       : 4:2:0
Bit depth                                : 8 bits
Scan type                                : Progressive
Bits/(Pixel*Frame)                       : 0.227
Stream size                              : 5.68 GiB (71%)
Writing library                          : x264 core 148 r2597 e86f3a1
Encoding settings                        : cabac=1 / ref=5 / deblock=1:0:0 / analyse=0x3:0x113 / me=umh / subme=10 / psy=1 / psy_rd=1.05:0.10 / mixed_ref=1 / me_range=48 / chroma_me=1 / trellis=2 / 8x8dct=1 / cqm=0 / deadzone=21,11 / fast_pskip=0 / chroma_qp_offset=-2 / threads=12 / lookahead_threads=1 / sliced_threads=0 / nr=0 / decimate=1 / interlaced=0 / bluray_compat=0 / constrained_intra=0 / bframes=6 / b_pyramid=2 / b_adapt=2 / b_bias=0 / direct=3 / weightb=1 / open_gop=0 / weightp=2 / keyint=250 / keyint_min=23 / scenecut=40 / intra_refresh=0 / rc=2pass / mbtree=0 / bitrate=8375 / ratetol=2.0 / qcomp=0.70 / qpmin=0 / qpmax=69 / qpstep=4 / cplxblur=20.0 / qblur=0.5 / ip_ratio=1.40 / pb_ratio=1.30 / aq=2:1.00
Default                                  : Yes
Forced                                   : No

Audio
ID                                       : 2
Format                                   : DTS
Format/Info                              : Digital Theater Systems
Format profile                           : MA / Core
Mode                                     : 16
Format settings, Endianness              : Big
Codec ID                                 : A_DTS
Duration                                 : 1 h 37 min
Bit rate mode                            : Variable / Constant
Bit rate                                 : 3 313 kb/s / 1 509 kb/s
Channel(s)                               : 6 channels
Channel positions                        : Front: L C R, Side: L R, LFE
Sampling rate                            : 48.0 kHz
Frame rate                               : 93.750 FPS (512 spf)
Bit depth                                : 24 bits
Compression mode                         : Lossless / Lossy
Stream size                              : 2.25 GiB (28%)
Language                                 : English
Default                                  : Yes
Forced                                   : No

Text #1
ID                                       : 3
Format                                   : PGS
Muxing mode                              : zlib
Codec ID                                 : S_HDMV/PGS
Codec ID/Info                            : Picture based subtitle format used on BDs/HD-DVDs
Duration                                 : 1 h 35 min
Bit rate                                 : 41.4 kb/s
Count of elements                        : 2702
Stream size                              : 28.3 MiB (0%)
Language                                 : English
Default                                  : Yes
Forced                                   : No

Text #2
ID                                       : 4
Format                                   : PGS
Muxing mode                              : zlib
Codec ID                                 : S_HDMV/PGS
Codec ID/Info                            : Picture based subtitle format used on BDs/HD-DVDs
Duration                                 : 1 h 35 min
Bit rate                                 : 28.8 kb/s
Count of elements                        : 2591
Stream size                              : 19.7 MiB (0%)
Language                                 : Chinese
Default                                  : No
Forced                                   : No

Download:

https://subyshare.com/78zvapoezj35/Brigsby.Bear.2017.1080p.BluRay.x264.DTS-HD.MA.5.part1.rar.html
https://subyshare.com/g398yl62jk47/Brigsby.Bear.2017.1080p.BluRay.x264.DTS-HD.MA.5.part2.rar.html
https://subyshare.com/a0qu9lakifqs/Brigsby.Bear.2017.1080p.BluRay.x264.DTS-HD.MA.5.part3.rar.html
https://subyshare.com/o31d266kovpp/Brigsby.Bear.2017.1080p.BluRay.x264.DTS-HD.MA.5.part4.rar.html
https://subyshare.com/zu9yiui8opmk/Brigsby.Bear.2017.1080p.BluRay.x264.DTS-HD.MA.5.part5.rar.html
https://subyshare.com/60ktwj7sq7k5/Brigsby.Bear.2017.1080p.BluRay.x264.DTS-HD.MA.5.part6.rar.html

Leave a Reply

Your email address will not be published. Required fields are marked *