Billy Boy 2017 1080p AMZN WEBRip DDP5.1 x264-NTG

Title: Billy Boy
Year: 2017
Time: 90 min
Genre: Crime / Drama / Thriller
Directed by: Bradley Buecker
Starring: Melissa Benoist / Blake Jenner / Melissa Bolona / Aramis Knight / Jim Beaver
IMDB Rating: 4.8
IMDB URL: http://www.imdb.com/title/tt3151710/
Plot:
Billy Forsetti has grown up poor, desperate and angry. His best friend, Mikey, has taught him how to steal and fight his way through life. Add a couple of friends, and introduce the world of carjacking-amateurs seeking thrills and cash-it all leads to an intoxicating time. But when Mikey and Billy’s values collide over where to draw the line, Mikey explodes and Billy finds himself estranged and wanting to move on. Billy takes up with a beautiful girl and finds a more promising life. But when a carjacking goes wrong, his past becomes a shadow that darkens and threatens his future. Mistrust, jealousy and fear will chase Billy down a rabbit hole that might leave him no way out.

Video
ID                                       : 1
Format                                   : AVC
Format/Info                              : Advanced Video Codec
Format profile                           : [email protected]
Format settings                          : CABAC / 4 Ref Frames
Format settings, CABAC                   : Yes
Format settings, ReFrames                : 4 frames
Codec ID                                 : V_MPEG4/ISO/AVC
Duration                                 : 1 h 26 min
Bit rate                                 : 5 413 kb/s
Width                                    : 1 920 pixels
Height                                   : 800 pixels
Display aspect ratio                     : 2.40:1
Frame rate mode                          : Constant
Frame rate                               : 23.976 (24000/1001) FPS
Color space                              : YUV
Chroma subsampling                       : 4:2:0
Bit depth                                : 8 bits
Scan type                                : Progressive
Bits/(Pixel*Frame)                       : 0.147
Stream size                              : 3.26 GiB (89%)
Default                                  : Yes
Forced                                   : No
Color range                              : Limited
Color primaries                          : BT.709
Transfer characteristics                 : BT.709
Matrix coefficients                      : BT.709

Audio
ID                                       : 2
Format                                   : E-AC-3
Format/Info                              : Enhanced Audio Coding 3
Codec ID                                 : A_EAC3
Duration                                 : 1 h 26 min
Bit rate mode                            : Constant
Bit rate                                 : 640 kb/s
Channel(s)                               : 6 channels
Channel positions                        : Front: L C R, Side: L R, LFE
Sampling rate                            : 48.0 kHz
Frame rate                               : 187.500 FPS (256 SPF)
Compression mode                         : Lossy
Stream size                              : 395 MiB (11%)
Language                                 : English
Service kind                             : Complete Main
Default                                  : Yes
Forced                                   : No

Text
ID                                       : 3
Format                                   : UTF-8
Codec ID                                 : S_TEXT/UTF8
Codec ID/Info                            : UTF-8 Plain Text
Duration                                 : 1 h 20 min
Bit rate                                 : 57 b/s
Count of elements                        : 1115
Stream size                              : 33.6 KiB (0%)
Title                                    : SDH
Language                                 : English
Default                                  : No
Forced                                   : No

Screenshots



 

Download

https://subyshare.com/5y20j41jazve/Billy.Boy.2018.1080p.AMZN.WEBRip.DDP5.1.part1.rar.html
https://subyshare.com/l9q0ieajboow/Billy.Boy.2018.1080p.AMZN.WEBRip.DDP5.1.part2.rar.html
https://subyshare.com/ppbo7dg2w05i/Billy.Boy.2018.1080p.AMZN.WEBRip.DDP5.1.part3.rar.html