Beyond The Sky 2018 1080p WEB-DL DD5.1 H264-FGT

 

Title: Beyond The Sky
Year: 2018
Time: 82 min
Genre: Mystery / Sci-Fi / Thriller
Directed by: Fulvio Sestito
Starring: Jordan Hinson / Peter Stormare / Dee Wallace / Martin Sensmeier / Don Stark
IMDB Rating: n/A
IMDB URL: http://www.imdb.com/title/tt3665498/
Plot:
While shooting a documentary to expose the lies of alien abductees, a provocative filmmaker and his crew encounter a young woman with a dark secret who leads them to uncover a disturbing truth.

Video
ID                                       : 1
Format                                   : AVC
Format/Info                              : Advanced Video Codec
Format profile                           : [email protected]
Format settings                          : CABAC / 4 Ref Frames
Format settings, CABAC                   : Yes
Format settings, ReFrames                : 4 frames
Codec ID                                 : V_MPEG4/ISO/AVC
Duration                                 : 1 h 22 min
Bit rate                                 : 4 587 kb/s
Width                                    : 1 916 pixels
Height                                   : 956 pixels
Display aspect ratio                     : 2.004
Frame rate mode                          : Constant
Frame rate                               : 23.976 FPS
Color space                              : YUV
Chroma subsampling                       : 4:2:0
Bit depth                                : 8 bits
Scan type                                : Progressive
Bits/(Pixel*Frame)                       : 0.104
Stream size                              : 2.63 GiB (92%)
Title                                    : Beyond.The.Sky.2018.1080p.WEB-DL.DD5.1.H264-FGT
Language                                 : English
Default                                  : Yes
Forced                                   : No
Color range                              : Limited
Color primaries                          : BT.709
Transfer characteristics                 : BT.709
Matrix coefficients                      : BT.709

Audio
ID                                       : 2
Format                                   : AC-3
Format/Info                              : Audio Coding 3
Codec ID                                 : A_AC3
Duration                                 : 1 h 22 min
Bit rate mode                            : Constant
Bit rate                                 : 384 kb/s
Channel(s)                               : 6 channels
Channel positions                        : Front: L C R, Side: L R, LFE
Sampling rate                            : 48.0 kHz
Frame rate                               : 31.250 FPS (1536 SPF)
Bit depth                                : 16 bits
Compression mode                         : Lossy
Stream size                              : 226 MiB (8%)
Title                                    : Beyond.The.Sky.2018.1080p.WEB-DL.DD5.1.H264-FGT
Language                                 : English
Service kind                             : Complete Main
Default                                  : Yes
Forced                                   : No

Menu
00:00:00.000                             : en:Chapter 1
00:16:38.456                             : en:Chapter 2
00:33:35.597                             : en:Chapter 3
00:53:48.184                             : en:Chapter 4
01:06:19.100                             : en:Chapter 5
01:18:07.266                             : en:Chapter 6

Screenshots



Download

https://subyshare.com/n3a8dixzh3w7/Beyond.The.Sky.2018.1080p.WEB-DL.DD5.1.part1.rar.html
https://subyshare.com/tv6r53p0atvh/Beyond.The.Sky.2018.1080p.WEB-DL.DD5.1.part2.rar.html