Berlin Syndrome 2017 LiMiTED 1080p BluRay x264-VETO

Title: Berlin Syndrome
Year: 2017
Time: 116 min
Genre: Drama / Horror / Mystery / Thriller
Directed by: Cate Shortland
Starring: Teresa Palmer / Max Riemelt / Matthias Habich / Emma Bading / Elmira Bahrami
IMDB Rating: 6.3
IMDB URL: http://www.imdb.com/title/tt3335606/
Plot:
A passionate holiday romance leads to an obsessive relationship, when an Australian photojournalist wakes one morning in a Berlin apartment and is unable to leave.

Video
ID                                       : 1
Format                                   : AVC
Format/Info                              : Advanced Video Codec
Format profile                           : High@L4.1
Format settings, CABAC                   : Yes
Format settings, ReFrames                : 5 frames
Codec ID                                 : V_MPEG4/ISO/AVC
Duration                                 : 1h 51mn
Bit rate                                 : 8 298 Kbps
Width                                    : 1 920 pixels
Height                                   : 808 pixels
Display aspect ratio                     : 2.40:1
Frame rate mode                          : Constant
Frame rate                               : 25.000 fps
Color space                              : YUV
Chroma subsampling                       : 4:2:0
Bit depth                                : 8 bits
Scan type                                : Progressive
Bits/(Pixel*Frame)                       : 0.214
Stream size                              : 6.47 GiB (85%)
Writing library                          : x264 core 152 r2851 ba24899
Encoding settings                        : cabac=1 / ref=5 / deblock=1:-1:-1 / analyse=0x3:0x133 / me=umh / subme=8 / psy=1 / psy_rd=1.00:0.15 / mixed_ref=1 / me_range=16 / chroma_me=1 / trellis=1 / 8x8dct=1 / cqm=0 / deadzone=21,11 / fast_pskip=0 / chroma_qp_offset=-4 / threads=24 / lookahead_threads=4 / sliced_threads=0 / nr=0 / decimate=1 / interlaced=0 / bluray_compat=0 / constrained_intra=0 / bframes=3 / b_pyramid=2 / b_adapt=2 / b_bias=0 / direct=3 / weightb=1 / open_gop=0 / weightp=2 / keyint=240 / keyint_min=23 / scenecut=40 / intra_refresh=0 / rc_lookahead=50 / rc=2pass / mbtree=1 / bitrate=8298 / ratetol=1.0 / qcomp=0.60 / qpmin=10 / qpmax=69 / qpstep=4 / cplxblur=20.0 / qblur=0.5 / ip_ratio=1.40 / aq=1:1.00
Language                                 : English
Default                                  : Yes
Forced                                   : No

Audio
ID                                       : 2
Format                                   : DTS
Format/Info                              : Digital Theater Systems
Mode                                     : 16
Format settings, Endianness              : Big
Codec ID                                 : A_DTS
Duration                                 : 1h 51mn
Bit rate mode                            : Constant
Bit rate                                 : 1 509 Kbps
Channel(s)                               : 6 channels
Channel positions                        : Front: L C R, Side: L R, LFE
Sampling rate                            : 48.0 KHz
Frame rate                               : 93.750 fps (512 spf)
Bit depth                                : 24 bits
Compression mode                         : Lossy
Stream size                              : 1.18 GiB (15%)
Language                                 : English
Default                                  : Yes
Forced                                   : No

Menu
00:00:00.000                             : en:00:00:00.000
00:06:05.080                             : en:00:06:05.080
00:14:47.840                             : en:00:14:47.840
00:24:45.200                             : en:00:24:45.200
00:36:56.080                             : en:00:36:56.080
00:45:32.720                             : en:00:45:32.720
00:51:47.160                             : en:00:51:47.160
01:00:08.320                             : en:01:00:08.320
01:09:28.720                             : en:01:09:28.720
01:20:33.520                             : en:01:20:33.520
01:27:53.200                             : en:01:27:53.200
01:37:26.640                             : en:01:37:26.640
01:46:31.520                             : en:01:46:31.520

Download:

https://subyshare.com/sxo0b42wuz48/Berlin.Syndrome.2017.LiMiTED.1080p.BluRay.part1.rar.html
https://subyshare.com/50knths0glqz/Berlin.Syndrome.2017.LiMiTED.1080p.BluRay.part2.rar.html
https://subyshare.com/mtdxu5rrkm46/Berlin.Syndrome.2017.LiMiTED.1080p.BluRay.part3.rar.html
https://subyshare.com/pb8k8hv87zu7/Berlin.Syndrome.2017.LiMiTED.1080p.BluRay.part4.rar.html
https://subyshare.com/p0y8k3fjm4zz/Berlin.Syndrome.2017.LiMiTED.1080p.BluRay.part5.rar.html
https://subyshare.com/dm4iifn5dbn1/Berlin.Syndrome.2017.LiMiTED.1080p.BluRay.part6.rar.html

Leave a Reply

Your email address will not be published. Required fields are marked *