Alis Wedding 2017 1080p WEB-DL DD5.1 H264-FGT

Title: Ali’s Wedding
Year: 2017
Time: 110 min
Genre: Comedy / Drama / Romance
Directed by: Jeffrey Walker
Starring: Osamah Sami / Don Hany / Helana Sawires / Robert Rabiah / Khaled Khalafalla
IMDB Rating: 6.7
IMDB URL: http://www.imdb.com/title/tt2782692/
Plot:
After a “white lie” which spirals out of control, a neurotic, naive and musically gifted Muslim cleric’s eldest son must follow through with an arranged marriage, except he is madly in love with an Australian born-Lebanese girl.

Video
ID                                       : 1
Format                                   : AVC
Format/Info                              : Advanced Video Codec
Format profile                           : [email protected]
Format settings                          : CABAC / 5 Ref Frames
Format settings, CABAC                   : Yes
Format settings, ReFrames                : 5 frames
Codec ID                                 : V_MPEG4/ISO/AVC
Duration                                 : 1 h 49 min
Bit rate                                 : 4 539 kb/s
Width                                    : 1 920 pixels
Height                                   : 804 pixels
Display aspect ratio                     : 2.40:1
Frame rate mode                          : Constant
Frame rate                               : 24.000 FPS
Color space                              : YUV
Chroma subsampling                       : 4:2:0
Bit depth                                : 8 bits
Scan type                                : Progressive
Bits/(Pixel*Frame)                       : 0.123
Stream size                              : 3.48 GiB (92%)
Title                                    : Alis.Wedding.2018.1080p.WEB-DL.DD5.1.H264-FGT
Language                                 : English
Default                                  : Yes
Forced                                   : No
Color range                              : Limited
Color primaries                          : BT.709
Transfer characteristics                 : BT.709
Matrix coefficients                      : BT.709

Audio
ID                                       : 2
Format                                   : AC-3
Format/Info                              : Audio Coding 3
Codec ID                                 : A_AC3
Duration                                 : 1 h 49 min
Bit rate mode                            : Constant
Bit rate                                 : 384 kb/s
Channel(s)                               : 6 channels
Channel positions                        : Front: L C R, Side: L R, LFE
Sampling rate                            : 48.0 kHz
Frame rate                               : 31.250 FPS (1536 SPF)
Bit depth                                : 16 bits
Compression mode                         : Lossy
Stream size                              : 301 MiB (8%)
Title                                    : Alis.Wedding.2018.1080p.WEB-DL.DD5.1.H264-FGT
Language                                 : English
Service kind                             : Complete Main
Default                                  : Yes
Forced                                   : No

Text
ID                                       : 3
Format                                   : UTF-8
Codec ID                                 : S_TEXT/UTF8
Codec ID/Info                            : UTF-8 Plain Text
Duration                                 : 1 h 44 min
Bit rate                                 : 57 b/s
Count of elements                        : 1366
Stream size                              : 44.3 KiB (0%)
Language                                 : English
Default                                  : Yes
Forced                                   : No

Menu
00:00:00.000                             : en:1
00:05:14.375                             : en:2
00:16:08.208                             : en:3
00:25:54.374                             : en:4
00:38:43.374                             : en:5
00:53:03.957                             : en:6
00:59:50.123                             : en:7
01:11:48.873                             : en:8
01:18:42.206                             : en:9
01:28:36.206                             : en:10
01:38:56.789                             : en:11
01:44:44.164                             : en:12

Screenshots



Download

https://subyshare.com/f3adqrozq2ez/Alis.Wedding.2017.1080p.WEB-DL.DD5.1.part1.rar.html
https://subyshare.com/npvkmsz9pxpu/Alis.Wedding.2017.1080p.WEB-DL.DD5.1.part2.rar.html
https://subyshare.com/22t9ysi7u7w3/Alis.Wedding.2017.1080p.WEB-DL.DD5.1.part3.rar.html