Alex And Me 2018 1080p WEB-DL DD5.1 H264-FGT

Title: Alex & Me
Year: 2018
Time: 76 min
Genre: Family
Directed by: Eric Champnella
Starring: Andrew Rush / Ava Acres / Siena Agudong / Kennedy Anthony / Julia Antonelli
IMDB Rating: 7
IMDB URL: http://www.imdb.com/title/tt8179218/
Plot:
Teenager Reagan Willis (Agudong) has one dream — to play soccer like her hero, Alex Morgan. Her bedroom is a shrine to all things Alex, including a life-size poster of the Olympic gold medalist. Yet in the Willis house, Reagan lives in the shadow of her prep football superstar brother, Logan. When Reagan fails to make the cut of the premiere local soccer club team and is humiliated by her rival Claire, she’s certain her ship has sailed. But after accidentally hitting her head, Reagan’s poster of Alex Morgan suddenly comes to life and everything changes. Written by Official Press Synosis

Video
ID                                       : 1
Format                                   : AVC
Format/Info                              : Advanced Video Codec
Format profile                           : [email protected]
Format settings                          : CABAC / 4 Ref Frames
Format settings, CABAC                   : Yes
Format settings, ReFrames                : 4 frames
Codec ID                                 : V_MPEG4/ISO/AVC
Duration                                 : 1 h 25 min
Bit rate                                 : 5 103 kb/s
Width                                    : 1 912 pixels
Height                                   : 1 072 pixels
Display aspect ratio                     : 16:9
Frame rate mode                          : Constant
Frame rate                               : 23.976 FPS
Color space                              : YUV
Chroma subsampling                       : 4:2:0
Bit depth                                : 8 bits
Scan type                                : Progressive
Bits/(Pixel*Frame)                       : 0.104
Stream size                              : 3.06 GiB (93%)
Title                                    : Alex.And.Me.2018.1080p.WEB-DL.DD5.1.H264-FGT
Language                                 : English
Default                                  : Yes
Forced                                   : No
Color range                              : Limited
Color primaries                          : BT.709
Transfer characteristics                 : BT.709
Matrix coefficients                      : BT.709

Audio
ID                                       : 2
Format                                   : AC-3
Format/Info                              : Audio Coding 3
Codec ID                                 : A_AC3
Duration                                 : 1 h 25 min
Bit rate mode                            : Constant
Bit rate                                 : 384 kb/s
Channel(s)                               : 6 channels
Channel positions                        : Front: L C R, Side: L R, LFE
Sampling rate                            : 48.0 kHz
Frame rate                               : 31.250 FPS (1536 SPF)
Bit depth                                : 16 bits
Compression mode                         : Lossy
Stream size                              : 235 MiB (7%)
Title                                    : Alex.And.Me.2018.1080p.WEB-DL.DD5.1.H264-FGT
Language                                 : English
Service kind                             : Complete Main
Default                                  : Yes
Forced                                   : No

Text
ID                                       : 3
Format                                   : UTF-8
Codec ID                                 : S_TEXT/UTF8
Codec ID/Info                            : UTF-8 Plain Text
Duration                                 : 1 h 25 min
Bit rate                                 : 73 b/s
Count of elements                        : 1544
Stream size                              : 45.7 KiB (0%)
Language                                 : English
Default                                  : Yes
Forced                                   : No

Menu
00:00:00.000                             : en:1
00:09:51.000                             : en:2
00:20:38.000                             : en:3
00:30:51.000                             : en:4
00:42:10.000                             : en:5
00:51:56.000                             : en:6
01:01:23.000                             : en:7
01:11:32.000                             : en:8
01:22:28.000                             : en:9

Screenshots



Download

https://subyshare.com/mo3ay6a2jy7d/Alex.And.Me.2018.1080p.WEB-DL.DD5.1.part1.rar.html
https://subyshare.com/z5jk430q3ggq/Alex.And.Me.2018.1080p.WEB-DL.DD5.1.part2.rar.html
https://subyshare.com/uefey96r4qov/Alex.And.Me.2018.1080p.WEB-DL.DD5.1.part3.rar.html