Acrimony 2018 1080p WEB-DL DD5.1 H264-FGT

Title: Acrimony
Year: 2018
Time: 120 min
Genre: Thriller
Directed by: Tyler Perry
Starring: Taraji P. Henson / Lyriq Bent / Crystle Stewart / Jazmyn Simon / Ptosha Storey
IMDB Rating: 4.9
IMDB URL: http://www.imdb.com/title/tt6063050/
Plot:
A faithful wife, tired of standing by her devious husband, is enraged when it becomes clear she has been betrayed.

Video
ID                                       : 1
Format                                   : AVC
Format/Info                              : Advanced Video Codec
Format profile                           : [email protected]
Format settings                          : CABAC / 5 Ref Frames
Format settings, CABAC                   : Yes
Format settings, ReFrames                : 5 frames
Codec ID                                 : V_MPEG4/ISO/AVC
Duration                                 : 2 h 0 min
Bit rate                                 : 4 568 kb/s
Width                                    : 1 908 pixels
Height                                   : 792 pixels
Display aspect ratio                     : 2.40:1
Frame rate mode                          : Constant
Frame rate                               : 23.976 (24000/1001) FPS
Color space                              : YUV
Chroma subsampling                       : 4:2:0
Bit depth                                : 8 bits
Scan type                                : Progressive
Bits/(Pixel*Frame)                       : 0.126
Stream size                              : 3.84 GiB (92%)
Title                                    : Acrimony.2018.1080p.WEB-DL.DD5.1.H264-FGT
Language                                 : English
Default                                  : Yes
Forced                                   : No
Color range                              : Limited
Color primaries                          : BT.709
Transfer characteristics                 : BT.709
Matrix coefficients                      : BT.709

Audio
ID                                       : 2
Format                                   : AC-3
Format/Info                              : Audio Coding 3
Codec ID                                 : A_AC3
Duration                                 : 2 h 0 min
Bit rate mode                            : Constant
Bit rate                                 : 384 kb/s
Channel(s)                               : 6 channels
Channel positions                        : Front: L C R, Side: L R, LFE
Sampling rate                            : 48.0 kHz
Frame rate                               : 31.250 FPS (1536 SPF)
Bit depth                                : 16 bits
Compression mode                         : Lossy
Stream size                              : 331 MiB (8%)
Title                                    : Acrimony.2018.1080p.WEB-DL.DD5.1.H264-FGT
Language                                 : English
Service kind                             : Complete Main
Default                                  : Yes
Forced                                   : No

Menu
00:00:00.000                             : en:1
00:02:34.000                             : en:2
00:13:01.000                             : en:3
00:25:11.000                             : en:4
00:32:58.000                             : en:5
00:41:35.000                             : en:6
00:52:03.000                             : en:7
01:00:40.000                             : en:8
01:12:36.000                             : en:9
01:24:22.000                             : en:10
01:33:44.000                             : en:11
01:44:17.000                             : en:12
01:54:00.000                             : en:13

Screenshots



Download

https://subyshare.com/2m85mbb2msxf/Acrimony.2018.1080p.WEB-DL.DD5.1.part1.rar.html
https://subyshare.com/otgg098ctiqw/Acrimony.2018.1080p.WEB-DL.DD5.1.part2.rar.html
https://subyshare.com/6omse30w1f52/Acrimony.2018.1080p.WEB-DL.DD5.1.part3.rar.html