Access All Areas 2017 1080p AMZN WEBRip DDP5.1 x264-NTG

Title: Access All Areas
Year: 2017
Time: 94 min
Genre: Comedy / Drama / Music
Directed by: Bryn Higgins
Starring: Ella Purnell / Nigel Lindsay / Georgie Henley / Jo Hartley / Jason Flemyng
IMDB Rating: 4.7
IMDB URL: http://www.imdb.com/title/tt4615318/
Plot:
An unlikely gang of teens go on the run to an island music festival, leaving behind their dysfunctional parents and the rules of the real world.

Video
ID                                       : 1
Format                                   : AVC
Format/Info                              : Advanced Video Codec
Format profile                           : [email protected]
Format settings                          : CABAC / 4 Ref Frames
Format settings, CABAC                   : Yes
Format settings, ReFrames                : 4 frames
Codec ID                                 : V_MPEG4/ISO/AVC
Duration                                 : 1 h 34 min
Bit rate mode                            : Variable
Bit rate                                 : 7 066 kb/s
Maximum bit rate                         : 15.0 Mb/s
Width                                    : 1 920 pixels
Height                                   : 800 pixels
Display aspect ratio                     : 2.40:1
Frame rate mode                          : Constant
Frame rate                               : 24.000 FPS
Color space                              : YUV
Chroma subsampling                       : 4:2:0
Bit depth                                : 8 bits
Scan type                                : Progressive
Bits/(Pixel*Frame)                       : 0.192
Stream size                              : 4.65 GiB (92%)
Default                                  : Yes
Forced                                   : No
Color range                              : Limited
Color primaries                          : BT.709
Transfer characteristics                 : BT.709
Matrix coefficients                      : BT.709

Audio
ID                                       : 2
Format                                   : E-AC-3
Format/Info                              : Enhanced Audio Coding 3
Codec ID                                 : A_EAC3
Duration                                 : 1 h 34 min
Bit rate mode                            : Constant
Bit rate                                 : 640 kb/s
Channel(s)                               : 6 channels
Channel positions                        : Front: L C R, Side: L R, LFE
Sampling rate                            : 48.0 kHz
Frame rate                               : 187.500 FPS (256 SPF)
Compression mode                         : Lossy
Stream size                              : 431 MiB (8%)
Language                                 : English
Service kind                             : Complete Main
Default                                  : Yes
Forced                                   : No

Text #1
ID                                       : 3
Format                                   : UTF-8
Codec ID                                 : S_TEXT/UTF8
Codec ID/Info                            : UTF-8 Plain Text
Duration                                 : 1 h 31 min
Bit rate                                 : 48 b/s
Count of elements                        : 1178
Stream size                              : 32.6 KiB (0%)
Language                                 : English
Default                                  : No
Forced                                   : No

Text #2
ID                                       : 4
Format                                   : UTF-8
Codec ID                                 : S_TEXT/UTF8
Codec ID/Info                            : UTF-8 Plain Text
Duration                                 : 1 h 31 min
Bit rate                                 : 54 b/s
Count of elements                        : 1277
Stream size                              : 36.6 KiB (0%)
Title                                    : SDH
Language                                 : English
Default                                  : No
Forced                                   : No

Menu
00:00:00.000                             : en:Studio Logo
00:00:21.000                             : en:Opening Credits
00:01:51.000                             : en:Title Sequence
00:01:55.000                             : en:Cops warn Mack about his daughter
00:09:05.000                             : en:Mia and friends hit the road to attend the fest
00:11:16.000                             : en:Mia and friends hit the road to attend the fest
00:20:45.000                             : en:The second phase of journey begins
00:29:58.000                             : en:Mia and friends arrive at the festival
00:37:59.000                             : en:Mack and Libby get anxious to find their children
00:48:28.000                             : en:Heath and Mia talk about the festival
00:54:42.000                             : en:Heath meets his idol
01:02:00.000                             : en:Heath hopes against hope to see his idol play
01:11:36.000                             : en:Mack finds peace in the island
01:16:15.000                             : en:Everybody is excited for the finale
01:23:50.000                             : en:An impromptu gig takes everyone by surprise
01:29:12.000                             : en:Heath gets a perk
01:30:55.000                             : en:End Credits

Screenshots



Download

https://subyshare.com/kvuh59ns1i0p/Access.All.Areas.2017.1080p.AMZN.WEBRip.DDP5.1.part1.rar.html
https://subyshare.com/d6aw3p996l57/Access.All.Areas.2017.1080p.AMZN.WEBRip.DDP5.1.part2.rar.html
https://subyshare.com/3apsea6mi38b/Access.All.Areas.2017.1080p.AMZN.WEBRip.DDP5.1.part3.rar.html
https://subyshare.com/cs3u9i04gs9x/Access.All.Areas.2017.1080p.AMZN.WEBRip.DDP5.1.part4.rar.html