A Frosty Affair 2015 1080p AMZN WEBRip DD5.1 x264-QOQ

Title: A Frosty Affair
Year: 2015
Time: 96 min
Genre: Adventure / Adventure
Directed by: Dylan Pearce
Starring: Jewel Staite / Shawn Roberts / Cindy Busby / Shaun Johnston / Samuel Marty
IMDB Rating: 6.2
IMDB URL: http://www.imdb.com/title/tt3827868/
Plot:
A rom-com about the adventures of a small town teacher, Kate Carter, going back to the city for her wedding. After a blizzard strikes, she is forced to travel with a stranger named Redford who leaves her questioning her future plans.

Video
ID                                       : 1
Format                                   : AVC
Format/Info                              : Advanced Video Codec
Format profile                           : [email protected]
Format settings                          : CABAC / 4 Ref Frames
Format settings, CABAC                   : Yes
Format settings, ReFrames                : 4 frames
Codec ID                                 : V_MPEG4/ISO/AVC
Duration                                 : 1 h 36 min
Bit rate mode                            : Variable
Bit rate                                 : 6 681 kb/s
Maximum bit rate                         : 15.0 Mb/s
Width                                    : 1 920 pixels
Height                                   : 1 080 pixels
Display aspect ratio                     : 16:9
Frame rate mode                          : Constant
Frame rate                               : 23.976 (24000/1001) FPS
Color space                              : YUV
Chroma subsampling                       : 4:2:0
Bit depth                                : 8 bits
Scan type                                : Progressive
Bits/(Pixel*Frame)                       : 0.134
Stream size                              : 4.49 GiB (91%)
Default                                  : Yes
Forced                                   : No
Color range                              : Limited
Color primaries                          : BT.709
Transfer characteristics                 : BT.709
Matrix coefficients                      : BT.709

Audio
ID                                       : 2
Format                                   : E-AC-3
Format/Info                              : Enhanced Audio Coding 3
Codec ID                                 : A_EAC3
Duration                                 : 1 h 36 min
Bit rate mode                            : Constant
Bit rate                                 : 640 kb/s
Channel(s)                               : 6 channels
Channel positions                        : Front: L C R, Side: L R, LFE
Sampling rate                            : 48.0 kHz
Frame rate                               : 187.500 FPS (256 SPF)
Compression mode                         : Lossy
Stream size                              : 440 MiB (9%)
Language                                 : English
Service kind                             : Complete Main
Default                                  : Yes
Forced                                   : No

Text #1
ID                                       : 3
Format                                   : UTF-8
Codec ID                                 : S_TEXT/UTF8
Codec ID/Info                            : UTF-8 Plain Text
Duration                                 : 1 h 35 min
Bit rate                                 : 51 b/s
Count of elements                        : 1297
Stream size                              : 36.2 KiB (0%)
Language                                 : English
Default                                  : No
Forced                                   : No

Text #2
ID                                       : 4
Format                                   : UTF-8
Codec ID                                 : S_TEXT/UTF8
Codec ID/Info                            : UTF-8 Plain Text
Duration                                 : 1 h 35 min
Bit rate                                 : 57 b/s
Count of elements                        : 1642
Stream size                              : 40.0 KiB (0%)
Title                                    : SDH
Language                                 : English
Default                                  : No
Forced                                   : No

Screenshots:






Download:

https://subyshare.com/kinl8pco7g0d/A.Frosty.Affair.2015.1080p.AMZN.WEBRip.DD5.1.part1.rar.html
https://subyshare.com/rmf47v5beqg1/A.Frosty.Affair.2015.1080p.AMZN.WEBRip.DD5.1.part2.rar.html
https://subyshare.com/jt81lnana8p2/A.Frosty.Affair.2015.1080p.AMZN.WEBRip.DD5.1.part3.rar.html
https://subyshare.com/w63udwgt8fms/A.Frosty.Affair.2015.1080p.AMZN.WEBRip.DD5.1.part4.rar.html

Leave a Reply

Your email address will not be published. Required fields are marked *