A Beautiful Star 2017 1080p BluRay x264 DTS-WiKi

Title: Utsukushii hoshi
Year: 2017
Time: 127 min
Genre: Drama / Drama
Directed by: Daihachi Yoshida
Starring: Lily Franky / Kazuya Kamenashi / Ai Hashimoto / Tomoko Nakajima
IMDB Rating: 6.1
IMDB URL: http://www.imdb.com/title/tt5512160/
Plot:
It portrays a family on Earth who come to believe that they are actually from other planets all of a sudden. They try so hard to save the endangered planet Earth but things get crazy on the way.

Video
ID                                       : 1
Format                                   : AVC
Format/Info                              : Advanced Video Codec
Format profile                           : [email protected]
Format settings                          : CABAC / 5 Ref Frames
Format settings, CABAC                   : Yes
Format settings, ReFrames                : 5 frames
Codec ID                                 : V_MPEG4/ISO/AVC
Duration                                 : 2 h 8 min
Bit rate                                 : 10.0 Mb/s
Width                                    : 1 920 pixels
Height                                   : 806 pixels
Display aspect ratio                     : 2.40:1
Frame rate mode                          : Constant
Frame rate                               : 23.976 (24000/1001) FPS
Color space                              : YUV
Chroma subsampling                       : 4:2:0
Bit depth                                : 8 bits
Scan type                                : Progressive
Bits/(Pixel*Frame)                       : 0.270
Stream size                              : 8.94 GiB (87%)
Writing library                          : x264 core 129 r2245+704+36 8e61944 tMod+MixAQ [[email protected]:2:0 X86_64]
Encoding settings                        : cabac=1 / ref=5 / deblock=1:-3:-3 / analyse=0x3:0x133 / me=umh / subme=11 / psy=1 / fade_compensate=0.00 / psy_rd=1.05:0.10 / mixed_ref=1 / me_range=32 / chroma_me=1 / trellis=2 / 8x8dct=1 / cqm=0 / deadzone=21,11 / fast_pskip=0 / chroma_qp_offset=-3 / threads=18 / lookahead_threads=3 / sliced_threads=0 / nr=0 / decimate=0 / interlaced=0 / bluray_compat=0 / constrained_intra=0 / fgo=0 / bframes=10 / b_pyramid=2 / b_adapt=2 / b_bias=0 / direct=3 / weightb=1 / open_gop=0 / weightp=2 / keyint=250 / keyint_min=23 / scenecut=40 / intra_refresh=0 / rc=2pass / mbtree=0 / bitrate=10002 / ratetol=1.0 / qcomp=0.70 / qpmin=0 / qpmax=69 / qpstep=4 / cplxblur=20.0 / qblur=0.5 / ip_ratio=1.40 / pb_ratio=1.30 / aq=1 / aq-strength=0.90 / aq-sensitivity=10.00 / aq-ifactor=1.00 / aq-pfactor=1.00 / aq-bfactor=1.00 / aq2=0
Language                                 : Japanese
Default                                  : Yes
Forced                                   : No

Audio
ID                                       : 2
Format                                   : DTS
Format/Info                              : Digital Theater Systems
Codec ID                                 : A_DTS
Duration                                 : 2 h 8 min
Bit rate mode                            : Constant
Bit rate                                 : 1 509 kb/s
Channel(s)                               : 6 channels
Channel positions                        : Front: L C R, Side: L R, LFE
Sampling rate                            : 48.0 kHz
Frame rate                               : 93.750 FPS (512 SPF)
Bit depth                                : 24 bits
Compression mode                         : Lossy
Stream size                              : 1.35 GiB (13%)
Language                                 : Japanese
Default                                  : Yes
Forced                                   : No

Text #1
ID                                       : 3
Format                                   : UTF-8
Codec ID                                 : S_TEXT/UTF8
Codec ID/Info                            : UTF-8 Plain Text
Duration                                 : 2 h 3 min
Bit rate                                 : 46 b/s
Count of elements                        : 1665
Stream size                              : 42.2 KiB (0%)
Title                                    : Simplified
Language                                 : Chinese
Default                                  : Yes
Forced                                   : No

Text #2
ID                                       : 4
Format                                   : UTF-8
Codec ID                                 : S_TEXT/UTF8
Codec ID/Info                            : UTF-8 Plain Text
Duration                                 : 2 h 3 min
Bit rate                                 : 46 b/s
Count of elements                        : 1665
Stream size                              : 42.2 KiB (0%)
Title                                    : Traditional
Language                                 : Chinese
Default                                  : No
Forced                                   : No

Menu
00:00:00.000                             : en:00:00:00.000
00:03:29.459                             : en:00:03:29.459
00:07:18.938                             : en:00:07:18.938
00:16:27.861                             : en:00:16:27.861
00:23:30.867                             : en:00:23:30.867
00:27:52.128                             : en:00:27:52.128
00:35:29.085                             : en:00:35:29.085
00:46:19.651                             : en:00:46:19.651
00:55:51.514                             : en:00:55:51.514
01:03:55.748                             : en:01:03:55.748
01:12:52.368                             : en:01:12:52.368
01:19:44.863                             : en:01:19:44.863
01:30:54.323                             : en:01:30:54.323
01:42:41.780                             : en:01:42:41.780
01:52:21.776                             : en:01:52:21.776
02:04:03.227                             : en:02:04:03.227

Download:

https://subyshare.com/uegz6qx8l0ja/A.Beautiful.Star.2017.1080p.BluRay.x264.part1.rar.html
https://subyshare.com/2tn4sqw39a1j/A.Beautiful.Star.2017.1080p.BluRay.x264.part2.rar.html
https://subyshare.com/y2orclp1kyly/A.Beautiful.Star.2017.1080p.BluRay.x264.part3.rar.html
https://subyshare.com/j1yue6fcenzz/A.Beautiful.Star.2017.1080p.BluRay.x264.part4.rar.html
https://subyshare.com/3pa1h6573h72/A.Beautiful.Star.2017.1080p.BluRay.x264.part5.rar.html
https://subyshare.com/ok6jlm1pq6ce/A.Beautiful.Star.2017.1080p.BluRay.x264.part6.rar.html
https://subyshare.com/fpbvpyyh7k5j/A.Beautiful.Star.2017.1080p.BluRay.x264.part7.rar.html
https://subyshare.com/umw19isx2d7n/A.Beautiful.Star.2017.1080p.BluRay.x264.part8.rar.html

Leave a Reply

Your email address will not be published. Required fields are marked *