7 Days in Entebbe 2018 1080p WEB-DL DD5.1 H264-FGT

Title: Entebbe
Year: 2018
Time: 107 min
Genre: Crime / Drama / History / Thriller
Directed by: Jose Padilha
Starring: Rosamund Pike / Daniel Bruhl / Eddie Marsan / Juan Pablo Raba / Kamil Lemieszewski
IMDB Rating: 5.7
IMDB URL: http://www.imdb.com/title/tt5466186/
Plot:
In July 1976, an Air France flight from Tel-Aviv to Paris via Athens was hijacked and forced to land in Entebbe, Uganda. The Jewish passengers were separated and held hostage in demand to release many terrorists held in Israeli prisons. After much debate, the Israeli government sent an elite commando unit to raid the airfield and release the hostages.

Video
ID                                       : 1
Format                                   : AVC
Format/Info                              : Advanced Video Codec
Format profile                           : [email protected]
Format settings                          : CABAC / 5 Ref Frames
Format settings, CABAC                   : Yes
Format settings, ReFrames                : 5 frames
Codec ID                                 : V_MPEG4/ISO/AVC
Duration                                 : 1 h 47 min
Bit rate                                 : 4 564 kb/s
Width                                    : 1 920 pixels
Height                                   : 800 pixels
Display aspect ratio                     : 2.40:1
Frame rate mode                          : Constant
Frame rate                               : 23.976 (24000/1001) FPS
Color space                              : YUV
Chroma subsampling                       : 4:2:0
Bit depth                                : 8 bits
Scan type                                : Progressive
Bits/(Pixel*Frame)                       : 0.124
Stream size                              : 3.41 GiB (92%)
Title                                    : 7.Days.in.Entebbe.2018.1080p.WEB-DL.DD5.1.H264-FGT
Language                                 : English
Default                                  : Yes
Forced                                   : No
Color range                              : Limited
Color primaries                          : BT.709
Transfer characteristics                 : BT.709
Matrix coefficients                      : BT.709

Audio
ID                                       : 2
Format                                   : AC-3
Format/Info                              : Audio Coding 3
Codec ID                                 : A_AC3
Duration                                 : 1 h 47 min
Bit rate mode                            : Constant
Bit rate                                 : 384 kb/s
Channel(s)                               : 6 channels
Channel positions                        : Front: L C R, Side: L R, LFE
Sampling rate                            : 48.0 kHz
Frame rate                               : 31.250 FPS (1536 SPF)
Bit depth                                : 16 bits
Compression mode                         : Lossy
Stream size                              : 294 MiB (8%)
Title                                    : 7.Days.in.Entebbe.2018.1080p.WEB-DL.DD5.1.H264-FGT
Language                                 : English
Service kind                             : Complete Main
Default                                  : Yes
Forced                                   : No

Text
ID                                       : 3
Format                                   : UTF-8
Codec ID                                 : S_TEXT/UTF8
Codec ID/Info                            : UTF-8 Plain Text
Duration                                 : 1 h 33 min
Bit rate                                 : 48 b/s
Count of elements                        : 1124
Stream size                              : 33.5 KiB (0%)
Language                                 : English
Default                                  : Yes
Forced                                   : No

Menu
00:00:00.000                             : en:1
00:02:33.570                             : en:2
00:06:18.669                             : en:3
00:12:01.261                             : en:4
00:19:01.431                             : en:5
00:24:12.575                             : en:6
00:28:11.604                             : en:7
00:32:44.418                             : en:8
00:38:11.410                             : en:9
00:44:33.542                             : en:10
00:49:32.464                             : en:11
00:53:07.011                             : en:12
00:58:23.701                             : en:13
01:04:05.541                             : en:14
01:08:08.617                             : en:15
01:16:14.977                             : en:16
01:21:12.607                             : en:17
01:28:58.989                             : en:18
01:37:32.835                             : en:19
01:39:10.890                             : en:20

Screenshots



Download

https://subyshare.com/5o44qi9dpnbl/7.Days.in.Entebbe.2018.1080p.WEB-DL.DD5.1.part1.rar.html
https://subyshare.com/0e5lzrxldsgf/7.Days.in.Entebbe.2018.1080p.WEB-DL.DD5.1.part2.rar.html
https://subyshare.com/elb2ffz4zpul/7.Days.in.Entebbe.2018.1080p.WEB-DL.DD5.1.part3.rar.html