211 2018 1080p WEB-DL DD5.1 H264-FGT

Title: 211
Year: 2018
Time: 86 min
Genre: Action / Drama / History
Directed by: York Alec Shackleton
Starring: Nicolas Cage / Sophie Skelton / Michael Rainey Jr. / Dwayne Cameron / Weston Cage
IMDB Rating: 4.1
IMDB URL: http://www.imdb.com/title/tt4976192/
Plot:
Bank heist movie in the vein of “End of Watch” meets “Black Hawk Down”.

Video
ID                                       : 1
Format                                   : AVC
Format/Info                              : Advanced Video Codec
Format profile                           : [email protected]
Format settings                          : CABAC / 4 Ref Frames
Format settings, CABAC                   : Yes
Format settings, ReFrames                : 4 frames
Codec ID                                 : V_MPEG4/ISO/AVC
Duration                                 : 1 h 27 min
Bit rate                                 : 5 189 kb/s
Width                                    : 1 920 pixels
Height                                   : 1 036 pixels
Display aspect ratio                     : 1.85:1
Frame rate mode                          : Constant
Frame rate                               : 23.976 FPS
Color space                              : YUV
Chroma subsampling                       : 4:2:0
Bit depth                                : 8 bits
Scan type                                : Progressive
Bits/(Pixel*Frame)                       : 0.109
Stream size                              : 3.16 GiB (93%)
Title                                    : 211.2018.1080p.WEB-DL.DD5.1.H264-FGT
Language                                 : English
Default                                  : Yes
Forced                                   : No
Color range                              : Limited
Color primaries                          : BT.709
Transfer characteristics                 : BT.709
Matrix coefficients                      : BT.709

Audio
ID                                       : 2
Format                                   : AC-3
Format/Info                              : Audio Coding 3
Codec ID                                 : A_AC3
Duration                                 : 1 h 27 min
Bit rate mode                            : Constant
Bit rate                                 : 384 kb/s
Channel(s)                               : 6 channels
Channel positions                        : Front: L C R, Side: L R, LFE
Sampling rate                            : 48.0 kHz
Frame rate                               : 31.250 FPS (1536 SPF)
Bit depth                                : 16 bits
Compression mode                         : Lossy
Stream size                              : 239 MiB (7%)
Title                                    : 211.2018.1080p.WEB-DL.DD5.1.H264-FGT
Language                                 : English
Service kind                             : Complete Main
Default                                  : Yes
Forced                                   : No

Menu
00:00:00.000                             : en:1
00:05:50.642                             : en:2
00:10:14.780                             : en:3
00:16:14.388                             : en:4
00:22:31.264                             : en:5
00:28:33.708                             : en:6
00:32:44.667                             : en:7
00:38:48.113                             : en:8
00:43:59.841                             : en:9
00:49:44.560                             : en:10
00:54:29.386                             : en:11
01:00:37.753                             : en:12
01:05:15.530                             : en:13
01:11:29.236                             : en:14
01:16:12.685                             : en:15
01:21:21.325                             : en:16

Screenshots



Download

https://subyshare.com/lj367oohx003/211.2018.1080p.WEB-DL.DD5.1.part1.rar.html
https://subyshare.com/8yczi32y8drx/211.2018.1080p.WEB-DL.DD5.1.part2.rar.html
https://subyshare.com/zstqb7yxv18x/211.2018.1080p.WEB-DL.DD5.1.part3.rar.html