2036 Origin Unknown 2018 1080p WEB-DL DD5.1 H264-FGT

Title: 2036 Origin Unknown
Year: 2018
Time: 94 min
Genre: Sci-Fi
Directed by: Hasraf Dulull
Starring: Katee Sackhoff / Julie Cox / Steven Cree / Ray Fearon / Noush Skaugen
IMDB Rating: 4.3
IMDB URL: http://www.imdb.com/title/tt4575328/
Plot:
After the first manned mission to Mars ends in a deadly crash, mission controller Mackenzie ‘Mack’ Wilson (Sackhoff) assists an artificial intelligence system, A.R.T.I. Their investigation uncovers a mysterious object under the surface of Mars, that could change the future of our planet as we know it. Written by boboTheDinosaur

Video
ID                                       : 1
Format                                   : AVC
Format/Info                              : Advanced Video Codec
Format profile                           : [email protected]
Format settings                          : CABAC / 5 Ref Frames
Format settings, CABAC                   : Yes
Format settings, ReFrames                : 5 frames
Codec ID                                 : V_MPEG4/ISO/AVC
Duration                                 : 1 h 34 min
Bit rate                                 : 4 554 kb/s
Width                                    : 1 904 pixels
Height                                   : 804 pixels
Display aspect ratio                     : 2.35:1
Frame rate mode                          : Constant
Frame rate                               : 24.000 FPS
Color space                              : YUV
Chroma subsampling                       : 4:2:0
Bit depth                                : 8 bits
Scan type                                : Progressive
Bits/(Pixel*Frame)                       : 0.124
Stream size                              : 3.01 GiB (92%)
Title                                    : 2036.Origin.Unknown.2018.1080p.WEB-DL.DD5.1.H264-FGT
Language                                 : English
Default                                  : Yes
Forced                                   : No
Color range                              : Limited
Color primaries                          : BT.709
Transfer characteristics                 : BT.709
Matrix coefficients                      : BT.709

Audio
ID                                       : 2
Format                                   : AC-3
Format/Info                              : Audio Coding 3
Codec ID                                 : A_AC3
Duration                                 : 1 h 34 min
Bit rate mode                            : Constant
Bit rate                                 : 384 kb/s
Channel(s)                               : 6 channels
Channel positions                        : Front: L C R, Side: L R, LFE
Sampling rate                            : 48.0 kHz
Frame rate                               : 31.250 FPS (1536 SPF)
Bit depth                                : 16 bits
Compression mode                         : Lossy
Stream size                              : 260 MiB (8%)
Title                                    : 2036.Origin.Unknown.2018.1080p.WEB-DL.DD5.1.H264-FGT
Language                                 : English
Service kind                             : Complete Main
Default                                  : Yes
Forced                                   : No

Menu
00:00:00.000                             : en:Chapter 1
00:10:41.641                             : en:Chapter 2
00:20:09.208                             : en:Chapter 3
00:31:32.891                             : en:Chapter 4
00:40:20.418                             : en:Chapter 5
00:49:58.996                             : en:Chapter 6
01:01:16.673                             : en:Chapter 7
01:11:01.257                             : en:Chapter 8
01:20:10.806                             : en:Chapter 9
01:32:15.530                             : en:Chapter 10

Screenshots



Download

https://subyshare.com/vpuz90wnid62/2036.Origin.Unknown.2018.1080p.WEB-DL.DD5.1.part1.rar.html
https://subyshare.com/bl13fyevd0k1/2036.Origin.Unknown.2018.1080p.WEB-DL.DD5.1.part2.rar.html
https://subyshare.com/6snnccbg4yi4/2036.Origin.Unknown.2018.1080p.WEB-DL.DD5.1.part3.rar.html